Asuka601
隐世仙人♂

[2023] [大陆] [剧情] [BD-1080P] 天龙八部之乔峰传[国英多音轨/中英字幕].Sakra.2023.BluRay.REMUX.1080p.AVC.Atmos.TrueHD7.1.2Audio-Dr

-->

完整标题:天龙八部之乔峰传[国英多音轨/中英字幕].Sakra.2023.BluRay.REMUX.1080p.AVC.Atmos.TrueHD7.1.2Audio-DreamHD 33.87GB



◎标  题 天龙八部之乔峰传
◎译  名 Śakra / Demi-Gods and Semi-Devils
◎年  代 2023
◎产  地 中国大陆 / 中国香港
◎类  别 剧情 / 动作 / 武侠 / 古装
◎语  言 汉语普通话 / 粤语
◎上映日期 2023-01-21(中国大陆网络) / 2023-01-19(中国香港) / 2023-01-16(马来西亚)
◎IMDb评分 5.7/10 (1796人评价)
◎IMDb链接 https://www.imdb.com/title/tt22488024/
◎豆瓣评分 4.9/10 (20036人评价)
◎豆瓣链接 https://movie.douban.com/subject/35905017/
◎片  长 132分钟
◎导  演 甄子丹 Donnie Yen
      阚家伟 Ka-Wai Kam
      郑伟文 Wai-Man Cheng
◎编  剧 生凌志 Lingzhi Sheng
      朱卫 Kevin Zhu
      沈乐静 Lejing Shen
      金庸 Louis Cha
◎演  员 甄子丹 Donnie Yen
      陈钰琪 Yukee Chen
      刘雅瑟 Yase Liu
      惠英红 Kara Wai Ying Hung
      吴樾 Yue Wu
      张兆辉 Siu-Fai Cheung
      王君馨 Grace Wong
      杜玉明 Yuming Du
      吕良伟 Ray Lui
      徐小明 Siu Ming Tsui
      袁祥仁 Cheung-Yan Yuen
      潘宏梁 Hongliang Pan
      李中华 Zhonghua Li
      梁国荣 Guorong Liang
      成城 Cheng Cheng
      张德晖 Dehui Zhang
      郭九龙 Jiulong Guo
      严华 Hua Yan
      蔡祥宇 Xiangyu Cai
      胡然 Michelle Hu
      赵华为 Huawei Zhao
      喻亢 Kang Yu
      徐向东 Xiangdong Xu
      曹世平 Shiping Cao
      李卫 Wei Li
      袁近辉 Jinhui Yuan
      张治洲 Zhizhou Zhang
      端木艺晨 Yichen Duanmu
      喻庆辉 Qinghui Yu
      白利卫 Liwei Bai
      刘敬尧 Jingyao Liu
      李岐杰 Qijie Li

◎简  介
    北宋年间,丐帮帮主乔峰英雄侠义,受武林拥戴,却突遭指认为契丹人而众叛亲离。追寻身世,寻找仇人途中,乔峰与慕容家婢女阿朱相识相知,情愫互生。二人历经聚贤庄、雁门关、镜湖风波,直至阿朱因马夫人设计被乔峰错杀,乔峰终查出一切皆是慕容复为复辟燕国的阴谋,乔峰手刃慕容复,随后带着阿朱的遗愿孤身前往塞外。

点击图片可查看大图

软字幕无法在截图上展现,HDR版本/杜比视界版本截图会出现颜色异常,请使用支持的设备播放!

##### MediaInfo ######
General
Unique ID : 217395128982375901292400497907428446801 (0xA38CC763D5B6286FB65234E3CFBF5251)
Complete name : Sakra.2023.BluRay.REMUX.1080p.AVC.Atmos.TrueHD7.1.2Audio-DreamHD.mkv
Duration : 2 h 10 min
Overall bit rate mode : Variable
Overall bit rate : 37.2 Mb/s

Video
ID : 1
ID in the original source medium : 4113 (0x1011)
Format : AVC
Format/Info : Advanced Video Codec
Format profile : [email protected]
Format settings : CABAC / 4 Ref Frames
Format settings, CABAC : Yes
Format settings, Reference frames : 4 frames
Codec ID : V_MPEG4/ISO/AVC
Duration : 2 h 10 min
Bit rate mode : Variable
Bit rate : 27.7 Mb/s
Maximum bit rate : 29.0 Mb/s
Width : 1 920 pixels
Height : 1 080 pixels
Display aspect ratio : 16:9
Frame rate mode : Constant
Frame rate : 24.000 FPS
Color space : YUV
Chroma subsampling : 4:2:0
Bit depth : 8 bits
Scan type : Progressive
Bits/(Pixel*Frame) : 0.556
Stream size : 25.2 GiB (74%)
Language : English
Default : No
Forced : No
Original source medium : Blu-ray

Audio #1
ID : 2
ID in the original source medium : 4352 (0x1100)
Format : MLP FBA 16-ch
Format/Info : Meridian Lossless Packing FBA with 16-channel presentation
Commercial name : Dolby TrueHD with Dolby Atmos
Codec ID : A_TRUEHD
Duration : 2 h 10 min
Bit rate mode : Variable
Bit rate : 5 316 kb/s
Maximum bit rate : 8 325 kb/s
Channel(s) : 8 channels
Channel layout : L R C LFE Ls Rs Lb Rb
Sampling rate : 48.0 kHz
Frame rate : 1 200.000 FPS (40 SPF)
Bit depth : 24 bits
Compression mode : Lossless
Stream size : 4.84 GiB (14%)
Title : 环绕声 7.1
Language : Chinese
Default : Yes
Forced : No
Original source medium : Blu-ray
Number of dynamic objects : 11
Bed channel count : 1 channel
Bed channel configuration : LFE

Audio #2
ID : 3
ID in the original source medium : 4353 (0x1101)
Format : MLP FBA
Format/Info : Meridian Lossless Packing FBA
Commercial name : Dolby TrueHD
Codec ID : A_TRUEHD
Duration : 2 h 10 min
Bit rate mode : Variable
Bit rate : 4 085 kb/s
Maximum bit rate : 6 702 kb/s
Channel(s) : 8 channels
Channel layout : L R C LFE Ls Rs Lb Rb
Sampling rate : 96.0 kHz
Frame rate : 1 200.000 FPS (80 SPF)
Bit depth : 24 bits
Compression mode : Lossless
Stream size : 3.72 GiB (11%)
Title : 环绕声 7.1
Language : Chinese
Default : No
Forced : No
Original source medium : Blu-ray

Text #1
ID : 4
ID in the original source medium : 4608 (0x1200)
Format : PGS
Codec ID : S_HDMV/PGS
Codec ID/Info : Picture based subtitle format used on BDs/HD-DVDs
Duration : 2 h 6 min
Bit rate : 19.3 kb/s
Frame rate : 0.369 FPS
Count of elements : 2791
Stream size : 17.4 MiB (0%)
Language : Chinese
Default : Yes
Forced : No
Original source medium : Blu-ray

Text #2
ID : 5
ID in the original source medium : 4609 (0x1201)
Format : PGS
Codec ID : S_HDMV/PGS
Codec ID/Info : Picture based subtitle format used on BDs/HD-DVDs
Duration : 2 h 6 min
Bit rate : 18.0 kb/s
Frame rate : 0.369 FPS
Count of elements : 2791
Stream size : 16.2 MiB (0%)
Language : Chinese
Default : No
Forced : No
Original source medium : Blu-ray

Text #3
ID : 6
ID in the original source medium : 4610 (0x1202)
Format : PGS
Codec ID : S_HDMV/PGS
Codec ID/Info : Picture based subtitle format used on BDs/HD-DVDs
Duration : 2 h 6 min
Bit rate : 24.4 kb/s
Frame rate : 0.369 FPS
Count of elements : 2792
Stream size : 22.0 MiB (0%)
Language : English
Default : No
Forced : No
Original source medium : Blu-ray

Text #4
ID : 7
ID in the original source medium : 4611 (0x1203)
Format : PGS
Codec ID : S_HDMV/PGS
Codec ID/Info : Picture based subtitle format used on BDs/HD-DVDs
Duration : 2 h 6 min
Bit rate : 18.9 kb/s
Frame rate : 0.343 FPS
Count of elements : 2597
Stream size : 17.1 MiB (0%)
Language : Chinese
Default : No
Forced : No
Original source medium : Blu-ray

Text #5
ID : 8
ID in the original source medium : 4612 (0x1204)
Format : PGS
Codec ID : S_HDMV/PGS
Codec ID/Info : Picture based subtitle format used on BDs/HD-DVDs
Duration : 2 h 6 min
Bit rate : 17.6 kb/s
Frame rate : 0.343 FPS
Count of elements : 2597
Stream size : 15.9 MiB (0%)
Language : Chinese
Default : No
Forced : No
Original source medium : Blu-ray

Text #6
ID : 9
ID in the original source medium : 4613 (0x1205)
Format : PGS
Codec ID : S_HDMV/PGS
Codec ID/Info : Picture based subtitle format used on BDs/HD-DVDs
Duration : 2 h 6 min
Bit rate : 24.5 kb/s
Frame rate : 0.343 FPS
Count of elements : 2597
Stream size : 22.1 MiB (0%)
Language : English
Default : No
Forced : No
Original source medium : Blu-ray

Menu
00:00:00.000 : en:Chapter 01
00:03:08.291 : en:Chapter 02
00:12:49.750 : en:Chapter 03
00:22:47.666 : en:Chapter 04
00:32:07.583 : en:Chapter 05
00:38:34.833 : en:Chapter 06
00:46:21.000 : en:Chapter 07
00:52:20.208 : en:Chapter 08
00:58:48.500 : en:Chapter 09
01:11:31.333 : en:Chapter 10
01:17:23.416 : en:Chapter 11
01:24:59.583 : en:Chapter 12
01:31:15.083 : en:Chapter 13
01:36:43.208 : en:Chapter 14
01:44:32.375 : en:Chapter 15
01:53:02.416 : en:Chapter 16
02:01:06.291 : en:Chapter 17
02:06:06.875 : en:Chapter 18


部分资源为软字幕,移动端推荐播放器:MxPlayer,nPlayer,infuse ,其他播放器请自行尝试。

部分资源为软字幕,电脑端推荐播放器:PotPlayer,完美解码,KMPLAYER,其他播放器请自行尝试。



1 个附件 售价 大小 下载 时间

Sakra.2023.BluRay.REMUX.1080p.AVC.Atmos.TrueHD7.1.2Audio-DreamHD[1LOU.ME].torrent 0 金币 87.76K 2779 次 1月前

#1楼
发帖时间:2024-02-25 11:01:12   |   回复数:1
feung18
武林盟主
感謝樓主辛苦 !
1月前 #2楼
游客组