Asuka601
隐世仙人♂

[2022] [其它] [剧情] [BD-1080P] 玛蒂尔达:音乐剧[中文字幕].Roald.Dahls.Matilda.the.Musical.2022.BluRay.REMUX.1080p.AVC.Atmos

-->

完整标题:玛蒂尔达:音乐剧[中文字幕].Roald.Dahls.Matilda.the.Musical.2022.BluRay.REMUX.1080p.AVC.Atmos.TrueHD7.1-DreamHD 18.01GB



◎标  题 玛蒂尔达:音乐剧
◎译  名 玛蒂达:音乐剧 / 小魔女:音乐剧 / Matilda
◎片  名 Roald Dahl’s Matilda the Musical
◎年  代 2022
◎产  地 英国 / 美国
◎类  别 剧情 / 喜剧 / 歌舞 / 家庭 / 奇幻
◎语  言 英语
◎上映日期 2022-10-05(伦敦电影节) / 2022-11-25(英国) / 2022-12-09(美国) / 2022-12-25(美国网络)
◎IMDb评分 7/10 (26855人评价)
◎IMDb链接 https://www.imdb.com/title/tt3447590/
◎豆瓣评分 7.6/10 (6003人评价)
◎豆瓣链接 https://movie.douban.com/subject/26287055/
◎片  长 117分钟
◎导  演 马修·沃楚斯 Matthew Warchus
◎编  剧 丹尼斯·凯利 Dennis Kelly
      蒂姆·明钦 Tim Minchin
      罗尔德·达尔 Roald Dahl
◎演  员 阿丽莎·威尔 Alisha Weir
      艾玛·汤普森 Emma Thompson
      拉什纳·林奇 Lashana Lynch
      斯蒂芬·格拉汉姆 Stephen Graham
      安德丽娅·赖斯伯勒 Andrea Riseborough
      辛杜·维伊 Sindhu Vee
      卡尔·斯宾塞 Carl Spencer
      劳伦·亚历珊德拉 Lauren Alexandra
      温特·贾莱特-格拉斯普尔 Winter Jarrett-Glasspool
      安德烈·沈 Andrei Shen
      阿什顿·罗伯森 Ashton Robertson
      米沙·加伯特 Meesha Garbett
      查利·霍德森 Charlie Hodson-Prior
      山内玲·富尔克 Rei Yamauchi Fulker
      凯瑟琳·金斯利 Katherine Kingsley
      安珀·阿德因卡 Amber Adeyinka
      詹姆斯·劳伦森 James Laurenson
      安·弗班克 Ann Firbank
      阿曼达·劳伦斯 Amanda Lawrence
      托马斯·阿诺德 Thomas Arnold
      詹姆斯·德莱顿 James Dryden
      蒂姆·本廷克 Tim Bentinck
      瑟拉娜·苏玲·布利斯 Serrana Su-Ling Bliss
      诺亚·雷戈特 Noah Leggott
      杰玛·吉亚诺斯 Jemma Geanaus
      穆兹·卡汗 Muzz Khan
      路易斯·马丁 Louis Martin
      尼克·欧文福特 Nick Owenford

◎简  介
    改编自同名音乐剧,故事以罗尔德·达尔1988年的同名小说为基础,玛蒂尔达是个天资过人的女孩,她拥有敏锐的思维和生动的想象力,敢于改变自己的人生并取得不可思议的成果。

点击图片可查看大图

软字幕无法在截图上展现,HDR版本/杜比视界版本截图会出现颜色异常,请使用支持的设备播放!

##### MediaInfo ######
General
Unique ID : 263751437622426723087272315435374278311 (0xC66CADDD60F49B242DF886629332F6A7)
Complete name : Roald.Dahls.Matilda.the.Musical.2022.BluRay.REMUX.1080p.AVC.Atmos.TrueHD7.1-DreamHD.mkv
Duration : 1 h 57 min
Overall bit rate mode : Variable
Overall bit rate : 22.0 Mb/s

Video
ID : 1
ID in the original source medium : 4113 (0x1011)
Format : AVC
Format/Info : Advanced Video Codec
Format profile : [email protected]
Format settings : CABAC / 4 Ref Frames
Format settings, CABAC : Yes
Format settings, Reference frames : 4 frames
Codec ID : V_MPEG4/ISO/AVC
Duration : 1 h 57 min
Bit rate mode : Variable
Bit rate : 16.9 Mb/s
Maximum bit rate : 28.0 Mb/s
Width : 1 920 pixels
Height : 1 080 pixels
Display aspect ratio : 16:9
Frame rate mode : Constant
Frame rate : 23.976 (24000/1001) FPS
Color space : YUV
Chroma subsampling : 4:2:0
Bit depth : 8 bits
Scan type : Progressive
Bits/(Pixel*Frame) : 0.340
Stream size : 13.9 GiB (77%)
Language : English
Default : No
Forced : No
Original source medium : Blu-ray

Audio
ID : 2
ID in the original source medium : 4352 (0x1100)
Format : MLP FBA 16-ch
Format/Info : Meridian Lossless Packing FBA with 16-channel presentation
Commercial name : Dolby TrueHD with Dolby Atmos
Codec ID : A_TRUEHD
Duration : 1 h 57 min
Bit rate mode : Variable
Bit rate : 4 227 kb/s
Maximum bit rate : 5 658 kb/s
Channel(s) : 8 channels
Channel layout : L R C LFE Ls Rs Lb Rb
Sampling rate : 48.0 kHz
Frame rate : 1 200.000 FPS (40 SPF)
Bit depth : 24 bits
Compression mode : Lossless
Stream size : 3.47 GiB (19%)
Title : 环绕声 7.1
Language : English
Default : Yes
Forced : No
Original source medium : Blu-ray
Number of dynamic objects : 11
Bed channel count : 1 channel
Bed channel configuration : LFE

Text #1
ID : 3
ID in the original source medium : 4608 (0x1200)
Format : PGS
Codec ID : S_HDMV/PGS
Codec ID/Info : Picture based subtitle format used on BDs/HD-DVDs
Duration : 1 h 53 min
Bit rate : 54.2 kb/s
Frame rate : 0.513 FPS
Count of elements : 3494
Stream size : 44.0 MiB (0%)
Language : English
Default : Yes
Forced : No
Original source medium : Blu-ray

Text #2
ID : 4
ID in the original source medium : 4610 (0x1202)
Format : PGS
Codec ID : S_HDMV/PGS
Codec ID/Info : Picture based subtitle format used on BDs/HD-DVDs
Duration : 1 h 50 min
Bit rate : 187 kb/s
Frame rate : 1.063 FPS
Count of elements : 7070
Stream size : 148 MiB (1%)
Language : Chinese
Default : No
Forced : No
Original source medium : Blu-ray

Text #3
ID : 5
ID in the original source medium : 4611 (0x1203)
Format : PGS
Codec ID : S_HDMV/PGS
Codec ID/Info : Picture based subtitle format used on BDs/HD-DVDs
Duration : 1 h 50 min
Bit rate : 205 kb/s
Frame rate : 1.063 FPS
Count of elements : 7070
Stream size : 163 MiB (1%)
Language : Chinese
Default : No
Forced : No
Original source medium : Blu-ray

Text #4
ID : 6
ID in the original source medium : 4612 (0x1204)
Format : PGS
Codec ID : S_HDMV/PGS
Codec ID/Info : Picture based subtitle format used on BDs/HD-DVDs
Duration : 1 h 50 min
Bit rate : 193 kb/s
Frame rate : 1.062 FPS
Count of elements : 7070
Stream size : 153 MiB (1%)
Language : Chinese
Default : No
Forced : No
Original source medium : Blu-ray

Text #5
ID : 7
ID in the original source medium : 4613 (0x1205)
Format : PGS
Codec ID : S_HDMV/PGS
Codec ID/Info : Picture based subtitle format used on BDs/HD-DVDs
Duration : 1 h 50 min
Bit rate : 211 kb/s
Frame rate : 1.062 FPS
Count of elements : 7070
Stream size : 168 MiB (1%)
Language : Chinese
Default : No
Forced : No
Original source medium : Blu-ray

Menu
00:00:00.000 : en:Chapter 01
00:05:43.885 : en:Chapter 02
00:10:22.538 : en:Chapter 03
00:17:57.159 : en:Chapter 04
00:24:34.181 : en:Chapter 05
00:33:08.194 : en:Chapter 06
00:43:51.045 : en:Chapter 07
00:53:08.560 : en:Chapter 08
01:02:05.304 : en:Chapter 09
01:07:24.582 : en:Chapter 10
01:14:02.020 : en:Chapter 11
01:21:32.470 : en:Chapter 12
01:31:16.846 : en:Chapter 13
01:40:51.462 : en:Chapter 14
01:47:01.164 : en:Chapter 15
01:50:57.776 : en:Chapter 16


部分资源为软字幕,移动端推荐播放器:MxPlayer,nPlayer,infuse ,其他播放器请自行尝试。

部分资源为软字幕,电脑端推荐播放器:PotPlayer,完美解码,KMPLAYER,其他播放器请自行尝试。



1 个附件 售价 大小 下载 时间

Roald.Dahls.Matilda.the.Musical.2022.BluRay.REMUX.1080p.AVC.Atmos.TrueHD7.1..[1LOU.ME].torrent 0 金币 48.13K 1512 次 1月前

#1楼
发帖时间:2024-02-25 10:53:45   |   回复数:0
游客组