Asuka601
隐世仙人♂

[2022] [其它] [剧情] [BD-1080P] 莱茵金[中文字幕/特效字幕].Rheingold.2022.BluRay.REMUX.1080p.AVC.Atmos.TrueHD7.1-DreamHD 34.

-->

完整标题:莱茵金[中文字幕/特效字幕].Rheingold.2022.BluRay.REMUX.1080p.AVC.Atmos.TrueHD7.1-DreamHD 34.49GB



◎标  题 莱茵金
◎译  名 德国有嘻哈 / 莱茵的黄金 / Rapper 夺命金(港)
◎片  名 Rheingold
◎年  代 2022
◎产  地 德国 / 意大利 / 荷兰
◎类  别 剧情 / 音乐 / 传记 / 犯罪
◎语  言 德语 / 库尔德语 / 荷兰语 / 阿拉伯语 / 英语 / 土耳其语
◎上映日期 2022-10-27(汉堡电影节)
◎IMDb评分 6.8/10 (2537人评价)
◎IMDb链接 https://www.imdb.com/title/tt15536668/
◎豆瓣评分 6.9/10 (830人评价)
◎豆瓣链接 https://movie.douban.com/subject/35376694/
◎片  长 138分钟
◎导  演 法提赫·阿金 Fatih Akin
◎编  剧 法提赫·阿金 Fatih Akin
      吉瓦尔·哈贾比 Giwar Hajabi
◎演  员 杰西·艾伯特 Jesse Albert
      何塞·巴罗斯 José Barros
      费利克斯·博尔德 Felix Bold
      沙伊玛·布恩 Shaima Boone
      鲁本·布林克曼 Ruben Brinkman
      泰瑞斯·布肯亚 Tyrese Bukenya
      卡齐姆·德米尔巴斯 Kazim Demirbas
      梅托·埃格 Meto Ege
      侯赛因·伊拉克 Hussein Eliraqui
      索戈尔·法加尼 Sogol Faghani
      朱莉娅·戈德堡 Julia Goldberg
      卡里姆·古尼斯 Karim Günes
      多加居·雷尔 Doga Gürer
      马龙·海德尔 Marlon Heidel
      萨米尔·吉布里尔 Samir Jebrelli
      丹尼斯·莫斯奇托 Denis Moschitto
      乌维·罗德 Uwe Rohde
      埃米利奥·萨卡里亚 Emilio Sakraya
      葛丽泰·索菲·施密特 Greta Sophie Schmidt
      洛蕾塔·斯特恩 Loretta Stern
      克里斯蒂安·斯基宾斯基 Christian Skibinski

◎简  介
    从贫民窟到音乐榜首,他的经历是一个充满戏剧性的传奇故事。早在上世纪八十年代,他便随家人来到德国落脚,过着最底层的生活。这里有许多机遇,同时也潜藏着许多危机和困难。很快,他从平民变成了一位臭名昭著的罪犯,为了逃避追捕,他从德国逃到了荷兰。几番波折,他最终还是进了监狱,在那里,他将人生经历写成了歌。

点击图片可查看大图

软字幕无法在截图上展现,HDR版本/杜比视界版本截图会出现颜色异常,请使用支持的设备播放!

##### MediaInfo ######
General
Unique ID : 27182985916873848308935133945066671812 (0x147340AE082C08D2F0014D59946BCEC4)
Complete name : Rheingold.2022.BluRay.REMUX.1080p.AVC.Atmos.TrueHD7.1-DreamHD.mkv
Duration : 2 h 18 min
Overall bit rate mode : Variable
Overall bit rate : 35.7 Mb/s

Video
ID : 1
ID in the original source medium : 4113 (0x1011)
Format : AVC
Format/Info : Advanced Video Codec
Format profile : [email protected]
Format settings : CABAC / 3 Ref Frames
Format settings, CABAC : Yes
Format settings, Reference frames : 3 frames
Codec ID : V_MPEG4/ISO/AVC
Duration : 2 h 18 min
Bit rate mode : Variable
Bit rate : 31.9 Mb/s
Maximum bit rate : 35.0 Mb/s
Width : 1 920 pixels
Height : 1 080 pixels
Display aspect ratio : 16:9
Frame rate mode : Constant
Frame rate : 23.976 (24000/1001) FPS
Color space : YUV
Chroma subsampling : 4:2:0
Bit depth : 8 bits
Scan type : Progressive
Bits/(Pixel*Frame) : 0.641
Stream size : 30.8 GiB (89%)
Language : English
Default : No
Forced : No
Original source medium : Blu-ray

Audio
ID : 2
ID in the original source medium : 4352 (0x1100)
Format : MLP FBA 16-ch
Format/Info : Meridian Lossless Packing FBA with 16-channel presentation
Commercial name : Dolby TrueHD with Dolby Atmos
Codec ID : A_TRUEHD
Duration : 2 h 18 min
Bit rate mode : Variable
Bit rate : 3 691 kb/s
Maximum bit rate : 7 176 kb/s
Channel(s) : 8 channels
Channel layout : L R C LFE Ls Rs Lb Rb
Sampling rate : 48.0 kHz
Frame rate : 1 200.000 FPS (40 SPF)
Bit depth : 24 bits
Compression mode : Lossless
Stream size : 3.56 GiB (10%)
Title : 环绕声 7.1
Language : German
Default : Yes
Forced : No
Original source medium : Blu-ray
Number of dynamic objects : 11
Bed channel count : 1 channel
Bed channel configuration : LFE

Text #1
ID : 3
ID in the original source medium : 4609 (0x1201)
Format : PGS
Codec ID : S_HDMV/PGS
Codec ID/Info : Picture based subtitle format used on BDs/HD-DVDs
Duration : 2 h 12 min
Bit rate : 28.0 kb/s
Frame rate : 0.322 FPS
Count of elements : 2566
Stream size : 26.6 MiB (0%)
Language : English
Default : Yes
Forced : No
Original source medium : Blu-ray

Text #2
ID : 4
ID in the original source medium : 4611 (0x1203)
Format : PGS
Codec ID : S_HDMV/PGS
Codec ID/Info : Picture based subtitle format used on BDs/HD-DVDs
Duration : 2 h 14 min
Bit rate : 37.1 kb/s
Frame rate : 0.382 FPS
Count of elements : 3073
Stream size : 35.7 MiB (0%)
Language : Chinese
Default : No
Forced : No
Original source medium : Blu-ray

Text #3
ID : 5
ID in the original source medium : 4612 (0x1204)
Format : PGS
Codec ID : S_HDMV/PGS
Codec ID/Info : Picture based subtitle format used on BDs/HD-DVDs
Duration : 2 h 14 min
Bit rate : 23.6 kb/s
Frame rate : 0.382 FPS
Count of elements : 3073
Stream size : 22.7 MiB (0%)
Language : Chinese
Default : No
Forced : No
Original source medium : Blu-ray

Text #4
ID : 6
ID in the original source medium : 4613 (0x1205)
Format : PGS
Codec ID : S_HDMV/PGS
Codec ID/Info : Picture based subtitle format used on BDs/HD-DVDs
Duration : 2 h 14 min
Bit rate : 39.8 kb/s
Frame rate : 0.382 FPS
Count of elements : 3073
Stream size : 38.2 MiB (0%)
Language : Chinese
Default : No
Forced : No
Original source medium : Blu-ray

Text #5
ID : 7
ID in the original source medium : 4614 (0x1206)
Format : PGS
Codec ID : S_HDMV/PGS
Codec ID/Info : Picture based subtitle format used on BDs/HD-DVDs
Duration : 2 h 14 min
Bit rate : 26.3 kb/s
Frame rate : 0.382 FPS
Count of elements : 3073
Stream size : 25.3 MiB (0%)
Language : Chinese
Default : No
Forced : No
Original source medium : Blu-ray

Menu
00:00:00.000 : en:Chapter 01
00:10:48.356 : en:Chapter 02
00:19:58.822 : en:Chapter 03
00:30:34.749 : en:Chapter 04
00:43:46.624 : en:Chapter 05
00:56:16.081 : en:Chapter 06
01:08:55.381 : en:Chapter 07
01:21:46.276 : en:Chapter 08
01:32:07.438 : en:Chapter 09
01:46:08.945 : en:Chapter 10
01:57:43.514 : en:Chapter 11
02:07:49.203 : en:Chapter 12


部分资源为软字幕,移动端推荐播放器:MxPlayer,nPlayer,infuse ,其他播放器请自行尝试。

部分资源为软字幕,电脑端推荐播放器:PotPlayer,完美解码,KMPLAYER,其他播放器请自行尝试。



1 个附件 售价 大小 下载 时间

Rheingold.2022.BluRay.REMUX.1080p.AVC.Atmos.TrueHD7.1-DreamHD[1LOU.ME].torrent 0 金币 89.30K 1106 次 1月前

#1楼
发帖时间:2024-02-25 10:51:32   |   回复数:0
游客组