Asuka601
隐世仙人♂

[2023] [大陆] [剧情] [WEB-4K] 怒潮[高码版][国语配音/中文字幕].Wolf.Hiding.2023.V2.2160p.HQ.WEB-DL.H265.DDP5.1.Atmos-DreamHD

-->

完整标题:怒潮[高码版][国语配音/中文字幕].Wolf.Hiding.2023.V2.2160p.HQ.WEB-DL.H265.DDP5.1.Atmos-DreamHD 16.51GB



◎标  题 怒潮
◎译  名 本色 / 新秩序 / 天地新秩序 / Wolf Hiding
◎年  代 2023
◎产  地 中国大陆
◎类  别 剧情 / 动作 / 悬疑 / 犯罪
◎语  言 汉语普通话 / 英语
◎上映日期 2023-12-16(中国大陆)
◎IMDb评分 5.9/10 (29人评价)
◎IMDb链接 https://www.imdb.com/title/tt18766596/
◎豆瓣评分 6.3/10 (27576人评价)
◎豆瓣链接 https://movie.douban.com/subject/35572588/
◎片  长 106分钟
◎导  演 马浴柯 Marc Ma
◎编  剧 马浴柯 Marc Ma
      顾浩然 Haoran Gu
      赵颢喆 Haozhe Zhao
◎演  员 张家辉 Nick Cheung
      阮经天 Ethan Juan
      王大陆 Talu Wang
      秦沛 Paul Chun
      马浴柯 Marc Ma
      陈国坤 Kwok-Kwan Chan
      连凯 Andrew Lin
      吴启华 Lawrence Ng
      李相炫 Jordan Lee
      陈晓依 Xiaoyi Chen
      何昕霖 Xinlin He
      姜皓文 Philip Keung Ho-Man
      杰古 Diego Dati
      线雨轩 Line
      哈立德·加纳姆 Khalid Ghanem

◎简  介
    横跨黑白两道只手遮天的洪泰集团正值换选之际,一个神秘杀手陈安(张家辉 饰)却突然只身闯入这个是非混乱的旋涡,搅得洪泰集团大乱。身处警察阵营的麦朗汶(阮经天 饰)和黑帮阵营的马文康(王大陆 饰)也盯上了他……各方势力伺机而动,谁才是幕后的操控者?一场生猛混战一触即发。

点击图片可查看大图

软字幕无法在截图上展现,HDR版本/杜比视界版本截图会出现颜色异常,请使用支持的设备播放!

##### MediaInfo ######
General
Unique ID : 333388418868241979282396927991338228692 (0xFAD0461E60ADC51857490F2C2827DBD4)
Complete name : Wolf.Hiding.2023.V2.2160p.HQ.WEB-DL.H265.DDP5.1.Atmos-DreamHD.mkv
Duration : 1 h 46 min
Overall bit rate : 22.2 Mb/s

Video
ID : 1
Format : HEVC
Format/Info : High Efficiency Video Coding
Format profile : Main [email protected]@Main
Codec ID : V_MPEGH/ISO/HEVC
Duration : 1 h 46 min
Bit rate : 19.8 Mb/s
Width : 3 840 pixels
Height : 1 624 pixels
Display aspect ratio : 2.35:1
Frame rate mode : Constant
Frame rate : 24.000 FPS
Color space : YUV
Chroma subsampling : 4:2:0
Bit depth : 10 bits
Bits/(Pixel*Frame) : 0.132
Stream size : 14.7 GiB (89%)
Default : Yes
Forced : No
Color range : Limited
Color primaries : BT.709
Transfer characteristics : BT.709
Matrix coefficients : BT.709

Audio #1
ID : 2
Format : E-AC-3 JOC
Format/Info : Enhanced AC-3 with Joint Object Coding
Commercial name : Dolby Digital Plus with Dolby Atmos
Codec ID : A_EAC3
Duration : 1 h 46 min
Bit rate mode : Constant
Bit rate : 768 kb/s
Channel(s) : 6 channels
Channel layout : L R C LFE Ls Rs
Sampling rate : 48.0 kHz
Frame rate : 31.250 FPS (1536 SPF)
Compression mode : Lossy
Stream size : 586 MiB (3%)
Title : Mandarin [DDP5.1 Atmos]
Language : Chinese
Service kind : Complete Main
Default : Yes
Forced : No
Complexity index : 16
Number of dynamic objects : 15
Bed channel count : 1 channel
Bed channel configuration : LFE

Audio #2
ID : 3
Format : E-AC-3
Format/Info : Enhanced AC-3
Commercial name : Dolby Digital Plus
Codec ID : A_EAC3
Duration : 1 h 46 min
Bit rate mode : Constant
Bit rate : 448 kb/s
Channel(s) : 6 channels
Channel layout : L R C LFE Ls Rs
Sampling rate : 48.0 kHz
Frame rate : 31.250 FPS (1536 SPF)
Compression mode : Lossy
Stream size : 342 MiB (2%)
Title : Mandarin [DDP5.1]
Language : Chinese
Service kind : Complete Main
Default : No
Forced : No

Audio #3
ID : 4
Format : E-AC-3
Format/Info : Enhanced AC-3
Commercial name : Dolby Digital Plus
Codec ID : A_EAC3
Duration : 1 h 46 min
Bit rate mode : Constant
Bit rate : 384 kb/s
Channel(s) : 6 channels
Channel layout : L R C LFE Ls Rs
Sampling rate : 48.0 kHz
Frame rate : 31.250 FPS (1536 SPF)
Compression mode : Lossy
Stream size : 293 MiB (2%)
Title : Mandarin [DDP5.1]
Language : Chinese
Service kind : Complete Main
Default : No
Forced : No

Audio #4
ID : 5
Format : E-AC-3
Format/Info : Enhanced AC-3
Commercial name : Dolby Digital Plus
Codec ID : A_EAC3
Duration : 1 h 46 min
Bit rate mode : Constant
Bit rate : 256 kb/s
Channel(s) : 6 channels
Channel layout : L R C LFE Ls Rs
Sampling rate : 48.0 kHz
Frame rate : 31.250 FPS (1536 SPF)
Compression mode : Lossy
Stream size : 195 MiB (1%)
Title : Mandarin [DDP5.1]
Language : Chinese
Service kind : Complete Main
Default : No
Forced : No

Audio #5
ID : 6
Format : E-AC-3
Format/Info : Enhanced AC-3
Commercial name : Dolby Digital Plus
Codec ID : A_EAC3
Duration : 1 h 46 min
Bit rate mode : Constant
Bit rate : 256 kb/s
Channel(s) : 2 channels
Channel layout : L R
Sampling rate : 48.0 kHz
Frame rate : 31.250 FPS (1536 SPF)
Bit depth : 32 bits
Compression mode : Lossy
Stream size : 195 MiB (1%)
Title : Mandarin [DDP2.0]
Language : Chinese
Service kind : Complete Main
Default : No
Forced : No

Audio #6
ID : 7
Format : AAC LC
Format/Info : Advanced Audio Codec Low Complexity
Codec ID : A_AAC-2
Duration : 1 h 46 min
Bit rate : 256 kb/s
Channel(s) : 2 channels
Channel layout : L R
Sampling rate : 44.1 kHz
Frame rate : 43.066 FPS (1024 SPF)
Compression mode : Lossy
Stream size : 195 MiB (1%)
Title : Mandarin [AAC2.0]
Language : Chinese
Default : No
Forced : No


部分资源为软字幕,移动端推荐播放器:MxPlayer,nPlayer,infuse ,其他播放器请自行尝试。

部分资源为软字幕,电脑端推荐播放器:PotPlayer,完美解码,KMPLAYER,其他播放器请自行尝试。



1 个附件 售价 大小 下载 时间

Wolf.Hiding.2023.V2.2160p.HQ.WEB-DL.H265.DDP5.1.Atmos-DreamHD[1LOU.ME].torrent 0 金币 44.34K 6927 次 1月前

#1楼
发帖时间:2024-02-25 09:12:05   |   回复数:0
游客组