Asuka601
隐世仙人♂

[更 早] [日本] [剧情] [BD-1080P] 白色巨塔[中文字幕].The.Great.White.Tower.1966.BluRay.1080p.AAC2.0.x264-DreamHD 4.39GB

-->

完整标题:白色巨塔[中文字幕].The.Great.White.Tower.1966.BluRay.1080p.AAC2.0.x264-DreamHD 4.39GB



◎标  题 白色巨塔
◎译  名 The Great White Tower / The Ivory Tower
◎片  名 白い巨塔
◎年  代 1966
◎产  地 日本
◎类  别 剧情
◎语  言 日语
◎上映日期 1966-10-15(日本)
◎IMDb评分 7.5/10 (239人评价)
◎IMDb链接 https://www.imdb.com/title/tt0327147/
◎豆瓣评分 8.5/10 (1377人评价)
◎豆瓣链接 https://movie.douban.com/subject/2156806/
◎片  长 150分钟
◎导  演 山本萨夫 Satsuo Yamamoto
◎编  剧 桥本忍 Shinobu Hashimoto
      山崎丰子 Toyoko Yamasaki
◎演  员 田宫二郎 Jiro Tamiya
      东野英治郎 Eijirô Tôno
      田村高广 Takahiro Tamura
      小泽荣太郎 Eitarô Ozawa
      船越英二 Eiji Funakoshi
      泷泽修 Osamu Takizawa
      藤村志保 Shiho Fujimura
      小川真由美 Mayumi Ogawa
      岸辉子 Teruko Kishi
      加藤嘉 Yoshi Katô
      清水将夫 Masao Shimizu
      石山健二郎 Ishiyama Kenjiro
      加藤武 Takeshi Katô
      下条正巳 Masami Shimojô
      铃木瑞穗 Mizuho Suzuki
      早川雄三 Yuzo Hayakawa
      高原骏雄 Toshio Takahara
      潮万太郎 Mantarô Ushio
      北原义郎 Yoshirô Kitahara
      長谷川待子 Machiko Hasegawa
      泷花久子 Hisako Takihana
      村田扶实子 Fumiko Murata
      竹村洋介 Yosuke Takemura
      南方伸夫 Nobuo Minakata
      阿井美千子 Michiko Ai
      岡崎夏子 Natsuko Okazaki

◎简  介
    浪速大学医学部第一外科的东贞藏教授(东野英治郎 饰)退休在即,拥有出色手术技巧且在医护工作者中享有极高人气的副教授财前五郎(田宫二郎 饰)是下一任教授的最有力候选人。出身贫寒的财前对名利有着超乎常人的野心,却也因此招至了东教授的不满。为了阻挡财前的步伐,东策划在全国范围内选拔继任者。感受到莫大压力的财前,在岳父财前又一(石山健二郎 饰)及大阪市北区医师会强大财力支持下,火力全开对教授职位进行搏命狙击。与此同时,一名胃癌患者交到财前手中。但是热衷名利之争的财前罔顾同期里见修二(田村高广 饰)的建议,自顾自进行了手术,最终将自己卷入医疗事故的漩涡之中……   本片根据山崎丰子的同名原作改编。

点击图片可查看大图

软字幕无法在截图上展现,HDR版本/杜比视界版本截图会出现颜色异常,请使用支持的设备播放!

##### MediaInfo ######
General
Complete name : The.Great.White.Tower.1966.BluRay.1080p.iPad.AAC2.0.x264-DreamHD.mp4
Duration : 2 h 29 min
Overall bit rate : 4 199 kb/s

Video
ID : 1
Format : AVC
Format/Info : Advanced Video Codec
Format profile : [email protected]
Format settings : 5 Ref Frames
Format settings, CABAC : No
Format settings, Reference frames : 5 frames
Codec ID : avc1
Codec ID/Info : Advanced Video Coding
Duration : 2 h 29 min
Bit rate : 4 000 kb/s
Width : 1 920 pixels
Height : 1 080 pixels
Display aspect ratio : 16:9
Frame rate mode : Variable
Frame rate : 23.976 (24000/1001) FPS
Minimum frame rate : 23.974 FPS
Maximum frame rate : 23.981 FPS
Color space : YUV
Chroma subsampling : 4:2:0
Bit depth : 8 bits
Scan type : Progressive
Bits/(Pixel*Frame) : 0.080
Stream size : 4.18 GiB (95%)
Writing library : x264 core 164 r3100 ed0f7a6
Encoding settings : cabac=0 / ref=5 / deblock=0:0:0 / analyse=0x1:0x111 / me=hex / subme=8 / psy=1 / psy_rd=1.00:0.00 / mixed_ref=1 / me_range=16 / chroma_me=1 / trellis=2 / 8x8dct=0 / cqm=0 / deadzone=21,11 / fast_pskip=1 / chroma_qp_offset=-2 / threads=24 / lookahead_threads=4 / sliced_threads=0 / nr=0 / decimate=1 / interlaced=0 / bluray_compat=0 / constrained_intra=0 / bframes=3 / b_pyramid=2 / b_adapt=1 / b_bias=0 / direct=3 / weightb=0 / open_gop=0 / weightp=0 / keyint=240 / keyint_min=24 / scenecut=40 / intra_refresh=0 / rc_lookahead=50 / rc=2pass / mbtree=1 / bitrate=4000 / ratetol=1.0 / qcomp=0.60 / qpmin=0 / qpmax=69 / qpstep=4 / cplxblur=20.0 / qblur=0.5 / vbv_maxrate=800000 / vbv_bufsize=800000 / nal_hrd=none / filler=0 / ip_ratio=1.40 / aq=1:1.00
Encoded date : UTC 2024-02-23 06:45:45
Tagged date : UTC 2024-02-23 06:45:45
Color range : Limited
Color primaries : BT.709
Transfer characteristics : BT.709
Matrix coefficients : BT.709
Menus : 3
mdhd_Duration : 8986144
Codec configuration box : avcC

Audio
ID : 2
Format : AAC LC
Format/Info : Advanced Audio Codec Low Complexity
Codec ID : mp4a-40-2
Duration : 2 h 29 min
Source duration : 2 h 29 min
Bit rate mode : Constant
Bit rate : 192 kb/s
Channel(s) : 2 channels
Channel layout : L R
Sampling rate : 48.0 kHz
Frame rate : 46.875 FPS (1024 SPF)
Compression mode : Lossy
Stream size : 205 MiB (5%)
Source stream size : 205 MiB (5%)
Title : Stereo
Language : Japanese
Default : Yes
Alternate group : 1
Encoded date : UTC 2024-02-23 06:45:45
Tagged date : UTC 2024-02-23 06:45:45
Menus : 3

Menu
ID : 3
Format : Timed Text
Codec ID : text
Duration : 2 h 29 min
Language : English
Encoded date : UTC 2024-02-23 06:45:45
Tagged date : UTC 2024-02-23 06:45:45
Bit rate mode : CBR
Menu For : 1,2
00:00:00.000 : 第 01 章
00:03:53.567 : 第 02 章
00:15:58.708 : 第 03 章
00:21:40.591 : 第 04 章
00:25:05.546 : 第 05 章
00:30:31.330 : 第 06 章
00:35:41.097 : 第 07 章
00:39:52.348 : 第 08 章
00:42:56.199 : 第 09 章
00:45:08.206 : 第 10 章
00:49:39.560 : 第 11 章
00:53:31.125 : 第 12 章
00:57:04.963 : 第 13 章
01:04:24.152 : 第 14 章
01:07:37.262 : 第 15 章
01:11:58.147 : 第 16 章
01:12:44.277 : 第 17 章
01:17:28.686 : 第 18 章
01:22:38.245 : 第 19 章
01:27:10.434 : 第 20 章
01:32:24.456 : 第 21 章
01:38:42.542 : 第 22 章
01:40:40.660 : 第 23 章
01:49:06.665 : 第 24 章
01:55:03.605 : 第 25 章
01:59:24.866 : 第 26 章
02:02:41.229 : 第 27 章
02:13:21.994 : 第 28 章
02:17:39.960 : 第 29 章
02:26:18.520 : 第 30 章
Bit rate mode : Constant


部分资源为软字幕,移动端推荐播放器:MxPlayer,nPlayer,infuse ,其他播放器请自行尝试。

部分资源为软字幕,电脑端推荐播放器:PotPlayer,完美解码,KMPLAYER,其他播放器请自行尝试。



1 个附件 售价 大小 下载 时间

The.Great.White.Tower.1966.BluRay.1080p.AAC2.0.x264-DreamHD[1LOU.ME].torrent 0 金币 14.16K 1155 次 1月前

#1楼
发帖时间:2024-02-24 01:08:52   |   回复数:0
游客组