Asuka601
隐世仙人♂

[2008] [日本] [剧情] [BD-1080P] 激情[简繁英字幕].Passion.2008.1080p.BluRay.x265.10bit.FLAC.2.0-SONYHD 5.08GB

-->

完整标题:激情[简繁英字幕].Passion.2008.1080p.BluRay.x265.10bit.FLAC.2.0-SONYHD 5.08GB



◎标  题 激情
◎译  名 激情时代(港) / 暗涌情事(台)
◎片  名 Passion
◎年  代 2008
◎产  地 日本
◎类  别 剧情
◎语  言 日语
◎上映日期 2008-09-26(圣塞巴斯蒂安电影节)
◎IMDb评分 6.9/10 (898人评价)
◎IMDb链接 https://www.imdb.com/title/tt1301178/
◎豆瓣评分 8.0/10 (5727人评价)
◎豆瓣链接 https://movie.douban.com/subject/3233603/
◎片  长 115分钟
◎导  演 滨口龙介 Ryûsuke Hamaguchi
◎编  剧 滨口龙介 Ryûsuke Hamaguchi
◎演  员 河井青叶 Aoba Kawai
      冈本龙汰 Ryuta Okamoto
      占部房子 Fusako Urabe
      冈部尚 Nao Okabe
      涩川清彦 Kiyohiko Shibukawa
      马科·奥拉尼耶 Marco Horanieh

◎简  介
    快要结婚的一对男女参加派对的时候,意外发现这位男人过去的第三者,派对结束后男女分开过夜。在晚上的横滨展开现代青年轻佻浮薄的爱情故事,又像关于爱情的形而上学的考察。他们最后得到的结论是感动还是嘲笑?

点击图片可查看大图

软字幕无法在截图上展现,HDR版本/杜比视界版本截图会出现颜色异常,请使用支持的设备播放!

##### MediaInfo ######
General
Unique ID : 295771922916089571230801645067413240335 (0xDE8399AD9BD5DAE14865327492D43A0F)
Complete name : Passion.2008.1080p.BluRay.x265.10bit.FLAC.2.0-SONYHD.mkv
Duration : 1 h 56 min
Overall bit rate mode : Variable
Overall bit rate : 6 267 kb/s

Video
ID : 1
Format : HEVC
Format/Info : High Efficiency Video Coding
Format profile : Main 10@L5@Main
Codec ID : V_MPEGH/ISO/HEVC
Duration : 1 h 56 min
Bit rate : 5 723 kb/s
Width : 1 920 pixels
Height : 1 080 pixels
Display aspect ratio : 16:9
Frame rate mode : Constant
Frame rate : 29.970 (30000/1001) FPS
Color space : YUV
Chroma subsampling : 4:2:0
Bit depth : 10 bits
Bits/(Pixel*Frame) : 0.092
Stream size : 4.64 GiB (91%)
Writing library : x265 3.5g2b25c9ba0+45:[Windows][GCC 10.2.0][64 bit] Yuuki 10bit+8bit+12bit
Encoding settings : rc=crf / crf=16.0000 / qcomp=0.60 / qpstep=4 / stats-write=0 / stats-read=0 / no-lossless / no-cu-lossless / aq-mode=3 / aq-strength=0.80 / cbqpoffs=0 / crqpoffs=0 / ipratio=1.40 / pbratio=1.30 / psy-rd=2.00 / psy-rdoq=0.00 / deblock=0:0 / ref=6 / limit-refs=1 / no-limit-modes / bframes=7 / b-adapt=2 / bframe-bias=0 / b-pyramid / b-intra / weightp / weightb / min-keyint=24 / max-keyint=240 / rc-lookahead=24 / gop-lookahead=0 / scenecut=40 / hist-scenecut=0 / radl=0 / max-cu-size=64 / min-cu-size=8 / me=3 / subme=7 / merange=48 / rdoq-level=0 / rd=4 / rdpenalty=0 / dynamic-rd=0.00 / no-rd-refine / ----- / cutree / sao / no-rect / no-amp / no-open-gop / wpp / no-pmode / no-pme / no-psnr / no-ssim / nr-intra=0 / nr-inter=0 / no-constrained-intra / no-strong-intra-smoothing / max-tu-size=32 / tu-inter-depth=1 / tu-intra-depth=1 / limit-tu=0 / qg-size=32 / qpmax=69 / qpmin=0 / ----- / cpuid=1111039 / frame-threads=4 / numa-pools=+ / log-level=2 / input-csp=1 / input-res=1920x1080 / interlace=0 / level-idc=0 / high-tier=1 / uhd-bd=0 / no-allow-non-conformance / no-repeat-headers / aud / no-hrd / info / hash=0 / no-temporal-layers / lookahead-slices=0 / no-splice / no-intra-refresh / no-ssim-rd / signhide / no-tskip / max-merge=3 / temporal-mvp / no-frame-dup / no-hme / no-analyze-src-pics / no-sao-non-deblock / selective-sao=4 / early-skip / rskip / no-fast-intra / no-tskip-fast / no-splitrd-skip / zone-count=0 / no-strict-cbr / no-rc-grain / no-const-vbv / sar=0 / overscan=0 / videoformat=5 / range=0 / colorprim=2 / transfer=2 / colormatrix=2 / chromaloc=0 / display-window=0 / cll=0,0 / min-luma=0 / max-luma=1023 / log2-max-poc-lsb=8 / vui-timing-info / vui-hrd-info / slices=1 / no-opt-qp-pps / no-opt-ref-list-length-pps / no-multi-pass-opt-rps / scenecut-bias=0.05 / hist-threshold=0.03 / no-opt-cu-delta-qp / no-aq-motion / no-hdr10 / no-hdr10-opt / no-dhdr10-opt / no-idr-recovery-sei / analysis-reuse-level=0 / analysis-save-reuse-level=0 / analysis-load-reuse-level=0 / scale-factor=0 / refine-intra=0 / refine-inter=0 / refine-mv=1 / refine-ctu-distortion=0 / no-limit-sao / ctu-info=0 / no-lowpass-dct / refine-analysis-type=0 / copy-pic=1 / max-ausize-factor=1.0 / no-dynamic-refine / no-single-sei / no-hevc-aq / no-svt / no-field / qp-adaptation-range=1.00 / scenecut-aware-qp=0conformance-window-offsets / right=0 / bottom=0 / decoder-max-rate=0 / no-vbv-live-multi-pass
Language : Japanese
Default : Yes
Forced : No

Audio
ID : 2
Format : FLAC
Format/Info : Free Lossless Audio Codec
Codec ID : A_FLAC
Duration : 1 h 56 min
Bit rate mode : Variable
Bit rate : 456 kb/s
Channel(s) : 2 channels
Channel layout : L R
Sampling rate : 48.0 kHz
Frame rate : 11.719 FPS (4096 SPF)
Bit depth : 16 bits
Compression mode : Lossless
Stream size : 379 MiB (7%)
Title : jap
Writing library : libFLAC 1.2.1 (UTC 2007-09-17)
Language : Japanese
Default : Yes
Forced : No

Text #1
ID : 3
ID in the original source medium : 4609 (0x1201)
Format : PGS
Muxing mode : zlib
Codec ID : S_HDMV/PGS
Codec ID/Info : Picture based subtitle format used on BDs/HD-DVDs
Duration : 1 h 51 min
Bit rate : 24.3 kb/s
Frame rate : 0.400 FPS
Count of elements : 2682
Stream size : 19.5 MiB (0%)
Title : chs
Language : Chinese
Default : Yes
Forced : No
Original source medium : Blu-ray

Text #2
ID : 4
ID in the original source medium : 4610 (0x1202)
Format : PGS
Muxing mode : zlib
Codec ID : S_HDMV/PGS
Codec ID/Info : Picture based subtitle format used on BDs/HD-DVDs
Duration : 1 h 51 min
Bit rate : 24.5 kb/s
Frame rate : 0.400 FPS
Count of elements : 2682
Stream size : 19.6 MiB (0%)
Title : cht
Language : Chinese
Default : No
Forced : No
Original source medium : Blu-ray

Text #3
ID : 5
ID in the original source medium : 4608 (0x1200)
Format : PGS
Muxing mode : zlib
Codec ID : S_HDMV/PGS
Codec ID/Info : Picture based subtitle format used on BDs/HD-DVDs
Duration : 1 h 51 min
Bit rate : 214 kb/s
Frame rate : 1.267 FPS
Count of elements : 8504
Stream size : 171 MiB (3%)
Title : eng
Language : English
Default : No
Forced : No
Original source medium : Blu-ray

Menu
00:00:00.000 : en:Chapter 01
00:09:23.362 : en:Chapter 02
00:19:16.755 : en:Chapter 03
00:30:16.147 : en:Chapter 04
00:39:37.975 : en:Chapter 05
00:52:46.229 : en:Chapter 06
01:01:08.931 : en:Chapter 07
01:10:34.830 : en:Chapter 08
01:19:51.620 : en:Chapter 09
01:28:49.157 : en:Chapter 10
01:40:30.090 : en:Chapter 11
01:52:33.146 : en:Chapter 12


部分资源为软字幕,移动端推荐播放器:MxPlayer,nPlayer,infuse ,其他播放器请自行尝试。

部分资源为软字幕,电脑端推荐播放器:PotPlayer,完美解码,KMPLAYER,其他播放器请自行尝试。



1 个附件 售价 大小 下载 时间

Passion.2008.1080p.BluRay.x265.10bit.FLAC.2.0-SONYHD[1LOU.ME].torrent 0 金币 15.75K 2450 次 2月前

#1楼
发帖时间:2024-02-21 17:44:04   |   回复数:0
游客组