Asuka601
隐世仙人♂

[2016] [日本] [剧情] [BD-1080P] 错乱的一代[中文字幕].Destruction.Babies.2016.BluRay.1080p.DTS-HDMA5.1.x265.10bit-DreamHD

-->

完整标题:错乱的一代[中文字幕].Destruction.Babies.2016.BluRay.1080p.DTS-HDMA5.1.x265.10bit-DreamHD 5.02GB



◎标  题 错乱的一代
◎译  名 失序男孩(台) / 喧嘩の凡て / All About Fighting / Destruction Babies
◎片  名 ディストラクション・ベイビーズ
◎年  代 2016
◎产  地 日本
◎类  别 剧情 / 犯罪
◎语  言 日语
◎上映日期 2016-05-21(日本)
◎IMDb评分 5.9/10 (902人评价)
◎IMDb链接 https://www.imdb.com/title/tt4912452/
◎豆瓣评分 6.9/10 (11057人评价)
◎豆瓣链接 https://movie.douban.com/subject/26418093/
◎片  长 108分钟
◎导  演 真利子哲也 Tetsuya Mariko
◎编  剧 真利子哲也 Tetsuya Mariko
      喜安浩平 Kohei Kiyasu
◎演  员 柳乐优弥 Yûya Yagira
      菅田将晖 Masaki Suda
      小松菜奈 Nana Komatsu
      村上虹郎 Nijiro Murakami
      绪方义博 Denden
      池松壮亮 Sosuke Ikematsu
      岩濑亮 Ryo Iwase
      北村匠海 Takumi Kitamura
      三浦诚己 Masaki Miura
      冈山天音 Okayama Amane
      郑龙进 Ryushin Tei
      吉村界人 Kaito Yoshimura
      王奕瑾 Yijin Wang

◎简  介
    故事发生在爱媛县松山市西部的小港口城市三津滨,失去了父母的内芦原泰良(柳乐优弥 饰)和弟弟将太(村上虹郎 饰)相依为命。对泰良来说,人生仿佛没有任何指望,只有全速奔走直至毁灭而已。在造船厂工作的泰良在一次暴力冲突后,决然地离开了港口。他辗转来到松山市区,一脸戾气的青年随时处于搏杀的状态,凡是看不过眼的人他都敢于挥拳相向,甚至被揍也全部畏惧。在这一过程中,小混混北原裕也(菅田将晖 饰)被泰良狼一般的行径所感染,于是热情过度地跟在了泰良的后边。无差别的殴斗,即使惹上黑社会也在所不惜。这是一段奔向灭亡的危险之旅……   本片根据真实事件改编,荣获2016年电影旬报十佳影片第四名。

##### MediaInfo ######
General
Unique ID : 170600973689153640607659823782602296193 (0x80588D68938110E607BEAE3957794B81)
Complete name : Destruction.Babies.2016.BluRay.1080p.DTS-HDMA5.1.x265.10bit-DreamHD.mkv
Duration : 1 h 48 min
Overall bit rate mode : Variable
Overall bit rate : 6 657 kb/s

Video
ID : 1
Format : HEVC
Format/Info : High Efficiency Video Coding
Format profile : Main [email protected]@High
Codec ID : V_MPEGH/ISO/HEVC
Duration : 1 h 48 min
Bit rate : 3 401 kb/s
Width : 1 920 pixels
Height : 1 040 pixels
Display aspect ratio : 1.85:1
Frame rate mode : Constant
Frame rate : 23.976 (24000/1001) FPS
Color space : YUV
Chroma subsampling : 4:2:0 (Type 2)
Bit depth : 10 bits
Bits/(Pixel*Frame) : 0.071
Stream size : 2.57 GiB (51%)
Writing library : x265 3.5+100-3dae0c3cc:[Windows][GCC 12.2.0][64 bit] 10bit
Encoding settings : cpuid=1111039 / frame-threads=4 / numa-pools=16 / wpp / no-pmode / no-pme / no-psnr / no-ssim / log-level=2 / input-csp=1 / input-res=1920x1040 / interlace=0 / total-frames=155367 / level-idc=51 / high-tier=1 / uhd-bd=0 / ref=6 / no-allow-non-conformance / no-repeat-headers / annexb / no-aud / no-eob / no-eos / no-hrd / info / hash=0 / temporal-layers=0 / no-open-gop / min-keyint=23 / keyint=250 / gop-lookahead=0 / bframes=14 / b-adapt=2 / b-pyramid / bframe-bias=0 / rc-lookahead=75 / lookahead-slices=6 / scenecut=40 / no-hist-scenecut / radl=0 / no-splice / no-intra-refresh / ctu=32 / min-cu-size=8 / no-rect / no-amp / max-tu-size=32 / tu-inter-depth=1 / tu-intra-depth=1 / limit-tu=0 / rdoq-level=0 / dynamic-rd=0.00 / no-ssim-rd / signhide / no-tskip / nr-intra=0 / nr-inter=0 / no-constrained-intra / no-strong-intra-smoothing / max-merge=3 / limit-refs=1 / no-limit-modes / me=3 / subme=7 / merange=48 / temporal-mvp / no-frame-dup / hme / Level / merange / L0,L1,L2=24,36,48 / weightp / weightb / no-analyze-src-pics / deblock=0:0 / sao / no-sao-non-deblock / rd=4 / selective-sao=4 / early-skip / rskip / no-fast-intra / no-tskip-fast / no-cu-lossless / b-intra / no-splitrd-skip / rdpenalty=2 / psy-rd=2.00 / psy-rdoq=0.00 / no-rd-refine / no-lossless / cbqpoffs=0 / crqpoffs=0 / rc=crf / crf=16.0 / qcomp=0.60 / qpstep=4 / stats-write=0 / stats-read=0 / vbv-maxrate=160000 / vbv-bufsize=160000 / vbv-init=0.9 / min-vbv-fullness=50.0 / max-vbv-fullness=80.0 / crf-max=0.0 / crf-min=0.0 / ipratio=1.40 / pbratio=1.30 / aq-mode=1 / aq-strength=1.00 / cutree / zone-count=0 / no-strict-cbr / qg-size=32 / no-rc-grain / qpmax=69 / qpmin=0 / no-const-vbv / sar=0 / overscan=0 / videoformat=5 / range=0 / colorprim=1 / transfer=1 / colormatrix=1 / chromaloc=1 / chromaloc-top=2 / chromaloc-bottom=2 / display-window=0 / cll=0,0 / min-luma=0 / max-luma=1023 / log2-max-poc-lsb=8 / vui-timing-info / vui-hrd-info / slices=1 / no-opt-qp-pps / no-opt-ref-list-length-pps / no-multi-pass-opt-rps / scenecut-bias=0.05 / no-opt-cu-delta-qp / aq-motion / no-hdr10 / no-hdr10-opt / no-dhdr10-opt / no-idr-recovery-sei / analysis-reuse-level=0 / analysis-save-reuse-level=0 / analysis-load-reuse-level=0 / scale-factor=0 / refine-intra=0 / refine-inter=0 / refine-mv=1 / refine-ctu-distortion=0 / no-limit-sao / ctu-info=0 / no-lowpass-dct / refine-analysis-type=0 / copy-pic=1 / max-ausize-factor=1.0 / no-dynamic-refine / no-single-sei / no-hevc-aq / no-svt / no-field / qp-adaptation-range=1.00 / scenecut-aware-qp=0conformance-window-offsets / right=0 / bottom=0 / decoder-max-rate=0 / no-vbv-live-multi-pass / no-mcstf / no-sbrc
Default : Yes
Forced : No
Color range : Limited
Color primaries : BT.709
Transfer characteristics : BT.709
Matrix coefficients : BT.709

Audio
ID : 2
Format : DTS XLL
Format/Info : Digital Theater Systems
Commercial name : DTS-HD Master Audio
Codec ID : A_DTS
Duration : 1 h 48 min
Bit rate mode : Variable
Bit rate : 3 201 kb/s
Channel(s) : 6 channels
Channel layout : C L R Ls Rs LFE
Sampling rate : 48.0 kHz
Frame rate : 93.750 FPS (512 SPF)
Bit depth : 24 bits
Compression mode : Lossless
Stream size : 2.41 GiB (48%)
Language : Japanese
Default : Yes
Forced : No

Text #1
ID : 3
Format : PGS
Codec ID : S_HDMV/PGS
Codec ID/Info : Picture based subtitle format used on BDs/HD-DVDs
Duration : 1 h 42 min
Bit rate : 26.4 kb/s
Frame rate : 0.323 FPS
Count of elements : 1992
Stream size : 19.5 MiB (0%)
Title : Chs
Language : Chinese
Default : Yes
Forced : No

Text #2
ID : 4
Format : PGS
Codec ID : S_HDMV/PGS
Codec ID/Info : Picture based subtitle format used on BDs/HD-DVDs
Duration : 1 h 42 min
Bit rate : 26.8 kb/s
Frame rate : 0.323 FPS
Count of elements : 1992
Stream size : 19.7 MiB (0%)
Title : Cht
Language : Chinese
Default : No
Forced : No

Menu
00:00:00.000 : en:Chapter 1
00:12:09.145 : en:Chapter 2
00:24:48.695 : en:Chapter 3
00:34:41.412 : en:Chapter 4
00:45:49.455 : en:Chapter 5
00:55:38.209 : en:Chapter 6
01:09:23.534 : en:Chapter 7
01:21:22.419 : en:Chapter 8
01:28:31.639 : en:Chapter 9
01:38:11.886 : en:Chapter 10


部分资源为软字幕,移动端推荐播放器:MxPlayer,nPlayer,infuse ,其他播放器请自行尝试。

部分资源为软字幕,电脑端推荐播放器:PotPlayer,完美解码,KMPLAYER,其他播放器请自行尝试。



1 个附件 售价 大小 下载 时间

Destruction.Babies.2016.BluRay.1080p.DTS-HDMA5.1.x265.10bit-DreamHD[1LOU.ME].torrent 0 金币 15.52K 1624 次 2月前

#1楼
发帖时间:2024-02-14 13:18:26   |   回复数:0
游客组