Asuka601
隐世仙人♂

[更 早] [日本] [剧情] [BD-1080P] 野性的证明[简繁英字幕].Never.Give.Up.1978.BluRay.1080p.LPCM2.0.x264-DreamHD 13.77GB

-->

完整标题:野性的证明[简繁英字幕].Never.Give.Up.1978.BluRay.1080p.LPCM2.0.x264-DreamHD 13.77GB



◎标  题 野性的证明
◎译  名 Yasei no shômei / Never Give Up
◎片  名 野性の証明
◎年  代 1978
◎产  地 日本
◎类  别 剧情 / 动作 / 犯罪
◎语  言 日语
◎上映日期 1978-10-07(日本)
◎IMDb评分 6.1/10 (193人评价)
◎IMDb链接 https://www.imdb.com/title/tt0326436/
◎豆瓣评分 7.0/10 (715人评价)
◎豆瓣链接 https://movie.douban.com/subject/1472515/
◎片  长 143分钟
◎导  演 佐藤纯弥 Jun'ya Satô
◎编  剧 高田宏治 Kôji Takada
      森村诚一 Seiichi Morimura
◎演  员 高仓健 Ken Takakura
      中野良子 Ryoko Nakano
      夏八木勋 Isao Natsuyagi
      药师丸博子 Hiroko Yakushimaru
      田中邦卫 Kunie Tanaka
      三国连太郎 Rentarô Mikuni
      仓石功 Isao Kuraishi
      阿藤快 Kai Ato
      大泷秀治 Hideji Ôtaki
      丹波哲郎 Tetsurô Tanba
      乔山中 Joe Yamanaka
      Toshizô Kudô
      金子信雄 Nobuo Kaneko
      馆博 Hiroshi Tachi
      渡边文雄 Fumio Watanabe
      檜よしえ Yoshie Hinoki
      田村高广 Takahiro Tamura
      绘泽萠子 Moeko Ezawa
      佐藤织江 Orie Satoh
      成田三树夫 Mikio Narita
      鼻肇 Hajime Hana
      岛香织 Kaori Shima
      北林谷荣 Tanie Kitabayashi
      理查德·安德森 Richard Anderson
      松方弘树 Hiroki Matsukata
      梅宫辰夫 Tatsuo Umemiya
      芦田伸介 Shinsuke Ashida
      谷村昌彦 Mashahiko Tanimura
      夏夕介 Yusuke Natsu
      田口計 Kei Taguchi

◎简  介
    日本东北部,福岛县羽代市正在进行一系列河堤改造的建设,与此同时,离奇死亡案件相继发生。其中,《羽代日报》记者立川和黑帮分子川崎昭夫(梅宮辰夫 饰)的情妇被认为死于山路车祸,其同侪越智朋子(中野良子 饰)倍感蹊跷,偷偷展开独立调查。另一方面,保险公司也怀疑川崎有骗保之嫌,派出从自卫队特种部队退役的职员味泽越史(高倉健 饰)调查此事。味泽与朋子合作,却遭到川崎所在的中户组及其背后靠山大场一成(三國連太郎 饰)的联合阻挠。另一方面,刑警北野(夏八木勲 饰)在跟踪调查时发现,貌似不相识的味泽与朋子竟有着千丝万缕的联系,而他们的渊源更可追溯到1年前某山村部落发生的血腥惨剧……   本片根据森村誠一的同名原作改编,并荣获1979年每日电影读者选择奖。

##### MediaInfo ######
General
Unique ID : 75559917635774864602034809894103214026 (0x38D84F9064B092377F3713D687D8E7CA)
Complete name : Never.Give.Up.1978.BluRay.1080p.LPCM2.0.x264-DreamHD.mkv
Duration : 2 h 22 min
Overall bit rate : 13.8 Mb/s

Video
ID : 1
Format : AVC
Format/Info : Advanced Video Codec
Format profile : [email protected]
Format settings : CABAC / 4 Ref Frames
Format settings, CABAC : Yes
Format settings, Reference frames : 4 frames
Codec ID : V_MPEG4/ISO/AVC
Duration : 2 h 22 min
Bit rate : 12.1 Mb/s
Width : 1 908 pixels
Height : 1 024 pixels
Display aspect ratio : 1.85:1
Frame rate mode : Constant
Frame rate : 23.976 (24000/1001) FPS
Color space : YUV
Chroma subsampling : 4:2:0
Bit depth : 8 bits
Scan type : Progressive
Bits/(Pixel*Frame) : 0.259
Stream size : 12.1 GiB (88%)
Writing library : x264 core 164 r3106 eaa68fa
Encoding settings : cabac=1 / ref=4 / deblock=1:-3:-3 / analyse=0x3:0x133 / me=umh / subme=11 / psy=1 / psy_rd=1.00:0.00 / mixed_ref=1 / me_range=64 / chroma_me=1 / trellis=2 / 8x8dct=1 / cqm=0 / deadzone=21,11 / fast_pskip=0 / chroma_qp_offset=-2 / threads=24 / lookahead_threads=6 / sliced_threads=0 / nr=0 / decimate=0 / interlaced=0 / bluray_compat=0 / constrained_intra=0 / bframes=12 / b_pyramid=2 / b_adapt=2 / b_bias=0 / direct=3 / weightb=1 / open_gop=0 / weightp=2 / keyint=250 / keyint_min=23 / scenecut=40 / intra_refresh=0 / rc=crf / mbtree=0 / crf=18.0 / qcomp=0.70 / qpmin=0 / qpmax=69 / qpstep=4 / ip_ratio=1.30 / pb_ratio=1.20 / aq=3:0.80
Default : Yes
Forced : No
Color range : Limited
Color primaries : BT.709
Matrix coefficients : BT.709

Audio
ID : 2
ID in the original source medium : 4352 (0x1100)
Format : PCM
Format settings : Little / Signed
Codec ID : A_PCM/INT/LIT
Duration : 2 h 22 min
Bit rate mode : Constant
Bit rate : 1 536 kb/s
Channel(s) : 2 channels
Sampling rate : 48.0 kHz
Frame rate : 200.000 FPS (240 SPF)
Bit depth : 16 bits
Stream size : 1.53 GiB (11%)
Language : Japanese
Default : Yes
Forced : No
Original source medium : Blu-ray

Text #1
ID : 3
ID in the original source medium : 4608 (0x1200)
Format : PGS
Codec ID : S_HDMV/PGS
Codec ID/Info : Picture based subtitle format used on BDs/HD-DVDs
Duration : 2 h 22 min
Bit rate : 59.0 kb/s
Frame rate : 0.630 FPS
Count of elements : 5402
Stream size : 60.3 MiB (0%)
Language : Japanese
Default : Yes
Forced : No
Original source medium : Blu-ray

Text #2
ID : 4
ID in the original source medium : 4609 (0x1201)
Format : PGS
Codec ID : S_HDMV/PGS
Codec ID/Info : Picture based subtitle format used on BDs/HD-DVDs
Duration : 2 h 19 min
Bit rate : 19.6 kb/s
Frame rate : 0.238 FPS
Count of elements : 2000
Stream size : 19.6 MiB (0%)
Language : English
Default : Yes
Forced : No
Original source medium : Blu-ray

Text #3
ID : 5
ID in the original source medium : 4610 (0x1202)
Format : PGS
Codec ID : S_HDMV/PGS
Codec ID/Info : Picture based subtitle format used on BDs/HD-DVDs
Duration : 2 h 19 min
Bit rate : 24.4 kb/s
Frame rate : 0.255 FPS
Count of elements : 2132
Stream size : 24.4 MiB (0%)
Title : Chs
Language : Chinese
Default : Yes
Forced : No
Original source medium : Blu-ray

Text #4
ID : 6
ID in the original source medium : 4611 (0x1203)
Format : PGS
Codec ID : S_HDMV/PGS
Codec ID/Info : Picture based subtitle format used on BDs/HD-DVDs
Duration : 2 h 19 min
Bit rate : 28.4 kb/s
Frame rate : 0.255 FPS
Count of elements : 2132
Stream size : 28.3 MiB (0%)
Title : Cht
Language : Chinese
Default : Yes
Forced : No
Original source medium : Blu-ray

Menu
00:00:00.000 : en:第 01 章
00:16:32.700 : en:第 02 章
00:24:33.386 : en:第 03 章
00:33:28.337 : en:第 04 章
00:50:03.583 : en:第 05 章
01:02:30.329 : en:第 06 章
01:20:05.006 : en:第 07 章
01:30:10.238 : en:第 08 章
01:43:32.662 : en:第 09 章
02:00:21.087 : en:第 10 章
02:09:47.863 : en:第 11 章
02:19:50.048 : en:第 12 章


部分资源为软字幕,移动端推荐播放器:MxPlayer,nPlayer,infuse ,其他播放器请自行尝试。

部分资源为软字幕,电脑端推荐播放器:PotPlayer,完美解码,KMPLAYER,其他播放器请自行尝试。



2 个附件 售价 大小 下载 时间

Never.Give.Up.1978.BluRay.1080p.LPCM2.0.x264-DreamHD[1LOU.ME].torrent 0 金币 37.35K 1638 次 2月前

Never.Give.Up.1978.BluRay.1080p.LPCM2.0.x264-DreamHD[1LOU.ME].torrent 0 金币 37.35K 784 次 2月前

#1楼
发帖时间:2024-02-08 19:00:59   |   回复数:1
jokingcheung
超凡入圣№
谢谢分享
2月前 #2楼
游客组