Asuka601
隐世仙人♂

[更 早] [日本] [剧情] [BD-1080P] 乱[中文字幕].Ran.1985.1080p.BluRay.x265.10bit.DTS-SONYHD 7.60GB

-->

完整标题:乱[中文字幕].Ran.1985.1080p.BluRay.x265.10bit.DTS-SONYHD 7.60GB



◎标  题 乱
◎译  名 乱日本战国时代 / Revolt / Ran
◎年  代 1985
◎产  地 日本 / 法国
◎类  别 剧情 / 动作
◎语  言 日语
◎上映日期 1985-06-01(日本)
◎IMDb评分 8.2/10 (133535人评价)
◎IMDb链接 https://www.imdb.com/title/tt0089881/
◎豆瓣评分 8.9/10 (91574人评价)
◎豆瓣链接 https://movie.douban.com/subject/1296196/
◎片  长 162分钟
◎导  演 黑泽明 Akira Kurosawa
◎编  剧 黑泽明 Akira Kurosawa
      小国英雄 Hideo Oguni
      井手雅人 Masato Ide
      威廉·莎士比亚 William Shakespeare
◎演  员 仲代达矢 Tatsuya Nakadai
      寺尾聪 Akira Terao
      根津甚八 Jinpachi Nezu
      隆大介 Daisuke Ryû
      原田美枝子 Mieko Harada
      宫崎美子 Yoshiko Miyazaki
      井川比佐志 Hisashi Igawa
      池畑慎之介 Pîtâ
      油井昌由树 Masayuki Yui
      加藤和夫 Kazuo Katô
      松井范雄 Norio Matsui
      伊藤敏八 Toshiya Ito
      儿玉谦次 Kenji Kodama
      野村万斋 Mansai Nomura
      加藤武 Takeshi Katô
      田崎润 Jun Tazaki
      植木等 Hitoshi Ueki
      头师孝雄 Takao Zushi
      头师佳孝 Yoshitaka Zushi
      天田益男 Masuo Amada
      木村荣 Sakae Kimura
      日比游一 Yuichi Hibi
      加藤精三 Seizô Katô
      南条玲子 Reiko Nanjo
      音羽久米子 Kumeko Otowa
      寺岛进 Susumu Terajima
      东乡晴子 Haruko Togo
      本多猪四郎 Ishirô Honda
      渡边哲 Tetsu Watanabe
      宫坂广 Hiroshi Miyasaka

◎简  介
    一文字秀虎(仲代达矢饰)征战多年,手段残忍。在七十岁时,秀虎准备将家业一分为三,由三个儿子分掌大权。他把太郎孝虎(寺尾聪饰)、次郎正虎(根津甚八饰)、三郎直虎(隆大介饰)叫到跟前,以“支箭会断,砚支箭折不断”喻语告诫三兄弟,嘱咐他们要休戚与共。三郎当场把三支箭横在膝上折断,以抗议父亲枉经乱世,而不知人情。秀虎大怒,将三郎驱逐出境。三郎遂到邻国入赘为婿。   而之后一文字家果然被三郎言中,背信弃义的告诫果然成真,父子及兄弟间的纷乱开始,迎接他们的将是什么命运?

点击图片可查看大图

软字幕无法在截图上展现,HDR版本/杜比视界版本截图会出现颜色异常,请使用支持的设备播放!

##### MediaInfo ######
General
Unique ID : 143668245760441948123259060438005166423 (0x6C157F666EFD4ABCE5527A88B533B157)
Complete name : Ran.1985.1080p.BluRay.x265.10bit.DTS-SONYHD.mkv
Duration : 2 h 40 min
Overall bit rate : 6 773 kb/s

Video
ID : 1
Format : HEVC
Format/Info : High Efficiency Video Coding
Format profile : Main 10@L5@Main
Codec ID : V_MPEGH/ISO/HEVC
Duration : 2 h 40 min
Bit rate : 5 218 kb/s
Width : 1 920 pixels
Height : 1 036 pixels
Display aspect ratio : 1.85:1
Frame rate mode : Constant
Frame rate : 24.000 FPS
Color space : YUV
Chroma subsampling : 4:2:0
Bit depth : 10 bits
Bits/(Pixel*Frame) : 0.109
Stream size : 5.86 GiB (77%)
Writing library : x265 3.5g2b25c9ba0+45:[Windows][GCC 10.2.0][64 bit] Yuuki 10bit+8bit+12bit
Encoding settings : rc=crf / crf=20.5000 / qcomp=0.60 / qpstep=4 / stats-write=0 / stats-read=0 / no-lossless / no-cu-lossless / aq-mode=3 / aq-strength=0.70 / cbqpoffs=0 / crqpoffs=0 / ipratio=1.40 / pbratio=1.30 / psy-rd=2.00 / psy-rdoq=0.00 / deblock=0:0 / ref=6 / limit-refs=1 / no-limit-modes / bframes=8 / b-adapt=2 / bframe-bias=0 / b-pyramid / b-intra / weightp / weightb / min-keyint=24 / max-keyint=240 / rc-lookahead=24 / gop-lookahead=0 / scenecut=40 / hist-scenecut=0 / radl=0 / max-cu-size=64 / min-cu-size=8 / me=3 / subme=7 / merange=48 / rdoq-level=0 / rd=4 / rdpenalty=0 / dynamic-rd=0.00 / no-rd-refine / ----- / cutree / sao / no-rect / no-amp / no-open-gop / wpp / no-pmode / no-pme / no-psnr / no-ssim / nr-intra=0 / nr-inter=0 / no-constrained-intra / no-strong-intra-smoothing / max-tu-size=32 / tu-inter-depth=1 / tu-intra-depth=1 / limit-tu=0 / qg-size=32 / qpmax=69 / qpmin=0 / ----- / cpuid=1111039 / frame-threads=5 / numa-pools=+ / log-level=2 / input-csp=1 / input-res=1920x1036 / interlace=0 / level-idc=0 / high-tier=1 / uhd-bd=0 / no-allow-non-conformance / no-repeat-headers / aud / no-hrd / info / hash=0 / no-temporal-layers / lookahead-slices=0 / no-splice / no-intra-refresh / no-ssim-rd / signhide / no-tskip / max-merge=3 / temporal-mvp / no-frame-dup / no-hme / no-analyze-src-pics / no-sao-non-deblock / selective-sao=4 / early-skip / rskip / no-fast-intra / no-tskip-fast / no-splitrd-skip / zone-count=0 / no-strict-cbr / no-rc-grain / no-const-vbv / sar=0 / overscan=0 / videoformat=5 / range=0 / colorprim=2 / transfer=2 / colormatrix=2 / chromaloc=0 / display-window=0 / cll=0,0 / min-luma=0 / max-luma=1023 / log2-max-poc-lsb=8 / vui-timing-info / vui-hrd-info / slices=1 / no-opt-qp-pps / no-opt-ref-list-length-pps / no-multi-pass-opt-rps / scenecut-bias=0.05 / hist-threshold=0.03 / no-opt-cu-delta-qp / no-aq-motion / no-hdr10 / no-hdr10-opt / no-dhdr10-opt / no-idr-recovery-sei / analysis-reuse-level=0 / analysis-save-reuse-level=0 / analysis-load-reuse-level=0 / scale-factor=0 / refine-intra=0 / refine-inter=0 / refine-mv=1 / refine-ctu-distortion=0 / no-limit-sao / ctu-info=0 / no-lowpass-dct / refine-analysis-type=0 / copy-pic=1 / max-ausize-factor=1.0 / no-dynamic-refine / no-single-sei / no-hevc-aq / no-svt / no-field / qp-adaptation-range=1.00 / scenecut-aware-qp=0conformance-window-offsets / right=0 / bottom=0 / decoder-max-rate=0 / no-vbv-live-multi-pass
Language : English
Default : Yes
Forced : No

Audio
ID : 2
ID in the original source medium : 4352 (0x1100)
Format : DTS
Format/Info : Digital Theater Systems
Codec ID : A_DTS
Duration : 2 h 40 min
Bit rate mode : Constant
Bit rate : 1 509 kb/s
Channel(s) : 6 channels
Channel layout : C L R Ls Rs LFE
Sampling rate : 48.0 kHz
Frame rate : 93.750 FPS (512 SPF)
Bit depth : 16 bits
Compression mode : Lossy
Stream size : 1.69 GiB (22%)
Language : Japanese
Default : Yes
Forced : No
Original source medium : Blu-ray

Text #1
ID : 3
ID in the original source medium : 4611 (0x1203)
Format : PGS
Muxing mode : zlib
Codec ID : S_HDMV/PGS
Codec ID/Info : Picture based subtitle format used on BDs/HD-DVDs
Duration : 2 h 35 min
Bit rate : 24.4 kb/s
Frame rate : 0.240 FPS
Count of elements : 2235
Stream size : 27.2 MiB (0%)
Title : chs&jpn
Language : Chinese
Default : Yes
Forced : No
Original source medium : Blu-ray

Text #2
ID : 4
ID in the original source medium : 4612 (0x1204)
Format : PGS
Muxing mode : zlib
Codec ID : S_HDMV/PGS
Codec ID/Info : Picture based subtitle format used on BDs/HD-DVDs
Duration : 2 h 35 min
Bit rate : 24.6 kb/s
Frame rate : 0.240 FPS
Count of elements : 2235
Stream size : 27.3 MiB (0%)
Title : cht&jpn
Language : Chinese
Default : No
Forced : No
Original source medium : Blu-ray

Text #3
ID : 5
ID in the original source medium : 4613 (0x1205)
Format : PGS
Muxing mode : zlib
Codec ID : S_HDMV/PGS
Codec ID/Info : Picture based subtitle format used on BDs/HD-DVDs
Duration : 2 h 35 min
Bit rate : 13.9 kb/s
Frame rate : 0.240 FPS
Count of elements : 2235
Stream size : 15.5 MiB (0%)
Title : chs
Language : Chinese
Default : No
Forced : No
Original source medium : Blu-ray

Text #4
ID : 6
ID in the original source medium : 4614 (0x1206)
Format : PGS
Muxing mode : zlib
Codec ID : S_HDMV/PGS
Codec ID/Info : Picture based subtitle format used on BDs/HD-DVDs
Duration : 2 h 35 min
Bit rate : 14.1 kb/s
Frame rate : 0.240 FPS
Count of elements : 2235
Stream size : 15.6 MiB (0%)
Title : cht
Language : Chinese
Default : No
Forced : No
Original source medium : Blu-ray

Text #5
ID : 7
ID in the original source medium : 4615 (0x1207)
Format : PGS
Muxing mode : zlib
Codec ID : S_HDMV/PGS
Codec ID/Info : Picture based subtitle format used on BDs/HD-DVDs
Duration : 2 h 35 min
Bit rate : 12.2 kb/s
Frame rate : 0.240 FPS
Count of elements : 2235
Stream size : 13.6 MiB (0%)
Title : jpn
Language : Japanese
Default : No
Forced : No
Original source medium : Blu-ray

Menu
00:00:00.000 : en:Chapter 01
00:12:06.416 : en:Chapter 02
00:25:25.833 : en:Chapter 03
00:31:22.208 : en:Chapter 04
00:38:39.958 : en:Chapter 05
00:49:46.041 : en:Chapter 06
00:59:18.875 : en:Chapter 07
01:17:49.750 : en:Chapter 08
01:25:31.833 : en:Chapter 09
01:38:23.166 : en:Chapter 10
01:48:20.833 : en:Chapter 11
01:58:14.166 : en:Chapter 12
02:07:09.791 : en:Chapter 13
02:21:48.458 : en:Chapter 14
02:38:51.000 : en:Chapter 15


部分资源为软字幕,移动端推荐播放器:MxPlayer,nPlayer,infuse ,其他播放器请自行尝试。

部分资源为软字幕,电脑端推荐播放器:PotPlayer,完美解码,KMPLAYER,其他播放器请自行尝试。



1 个附件 售价 大小 下载 时间

Ran.1985.1080p.BluRay.x265.10bit.DTS-SONYHD[1LOU.ME].torrent 0 金币 21.83K 1624 次 2月前

#1楼
发帖时间:2024-02-05 18:10:58   |   回复数:1
jokingcheung
超凡入圣№
谢谢分享
2月前 #2楼
游客组