Asuka601
隐世仙人♂

[更 早] [日本] [剧情] [BD-1080P] 下一站,天国[中文字幕].After.Life.1998.BluRay.1080p.AAC2.0.x264-DreamHD 3.49GB

-->

完整标题:下一站,天国[中文字幕].After.Life.1998.BluRay.1080p.AAC2.0.x264-DreamHD 3.49GB



◎标  题 下一站,天国
◎译  名 After Life / Wonderful Life
◎片  名 ワンダフルライフ
◎年  代 1998
◎产  地 日本
◎类  别 剧情
◎语  言 日语
◎上映日期 1998-09-11(多伦多电影节) / 1999-04-17(日本)
◎IMDb评分 7.6/10 (13373人评价)
◎IMDb链接 https://www.imdb.com/title/tt0165078/
◎豆瓣评分 8.1/10 (16901人评价)
◎豆瓣链接 https://movie.douban.com/subject/1294413/
◎片  长 118分钟(日本)
◎导  演 是枝裕和 Hirokazu Koreeda
◎编  剧 是枝裕和 Hirokazu Koreeda
◎演  员 井浦新 ARATA
      小田绘梨花 Erika Oda
      寺岛进 Susumu Terajima
      内藤刚志 Takashi Naitô
      谷启 Kei Tani
      木村多江 Tae Kimura
      伊势谷友介 Yûsuke Iseya
      香川京子 Kyôko Kagawa
      相泽虎之助 Toranosuke Aizawa
      吉野纱香 Sayaka Yoshino
      阿部隆史 Sadao Abe
      白川和子 Kazuko Shirakawa
      志贺广太郎 Kotaro Shiga
      石堂夏央 Natsuo Ishidô

◎简  介
    纯洁无瑕的天国,宁静祥和。逝者乘坐通往天国的列车,来到位于天国与人间的小站作短暂停留。在接下来的一周时间,他们将努力回忆一生中最幸福的时刻,然后由天国的工作人员拍成影片,放映留念。逝者们或娓娓道来,或情绪激动,或沉默不语,那一个个平凡温馨的小故事在天国宛若秋日午后的时光中缓缓流淌……   本片荣获1999年Manaki兄弟国际电影节铜相机300奖、1999年布宜诺斯艾利斯国际独立电影节最佳影片和最佳剧本奖、2000年每日电影最佳艺术指导奖、1999年法国南特三大洲电影节最佳电影奖、1998年圣•塞巴斯蒂安国际电影节影评人费比西奖、1998年都灵国际青年人电影节最佳剧本奖。

点击图片可查看大图

软字幕无法在截图上展现,HDR版本/杜比视界版本截图会出现颜色异常,请使用支持的设备播放!

##### MediaInfo ######
General
Complete name : After.Life.1998.BluRay.1080p.iPad.AAC2.0.x264-DreamHD.mp4
Duration : 1 h 58 min
Overall bit rate : 4 195 kb/s

Video
ID : 1
Format : AVC
Format/Info : Advanced Video Codec
Format profile : [email protected]
Format settings : 5 Ref Frames
Format settings, CABAC : No
Format settings, Reference frames : 5 frames
Codec ID : avc1
Codec ID/Info : Advanced Video Coding
Duration : 1 h 58 min
Bit rate : 3 998 kb/s
Width : 1 920 pixels
Height : 1 080 pixels
Display aspect ratio : 16:9
Frame rate mode : Variable
Frame rate : 23.976 (24000/1001) FPS
Minimum frame rate : 23.974 FPS
Maximum frame rate : 23.981 FPS
Color space : YUV
Chroma subsampling : 4:2:0
Bit depth : 8 bits
Scan type : Progressive
Bits/(Pixel*Frame) : 0.080
Stream size : 3.32 GiB (95%)
Writing library : x264 core 164 r3100 ed0f7a6
Encoding settings : cabac=0 / ref=5 / deblock=0:0:0 / analyse=0x1:0x111 / me=hex / subme=8 / psy=1 / psy_rd=1.00:0.00 / mixed_ref=1 / me_range=16 / chroma_me=1 / trellis=2 / 8x8dct=0 / cqm=0 / deadzone=21,11 / fast_pskip=1 / chroma_qp_offset=-2 / threads=24 / lookahead_threads=4 / sliced_threads=0 / nr=0 / decimate=1 / interlaced=0 / bluray_compat=0 / constrained_intra=0 / bframes=3 / b_pyramid=2 / b_adapt=1 / b_bias=0 / direct=3 / weightb=0 / open_gop=0 / weightp=0 / keyint=240 / keyint_min=24 / scenecut=40 / intra_refresh=0 / rc_lookahead=50 / rc=2pass / mbtree=1 / bitrate=4000 / ratetol=1.0 / qcomp=0.60 / qpmin=0 / qpmax=69 / qpstep=4 / cplxblur=20.0 / qblur=0.5 / vbv_maxrate=800000 / vbv_bufsize=800000 / nal_hrd=none / filler=0 / ip_ratio=1.40 / aq=1:1.00
Encoded date : UTC 2024-02-01 00:31:44
Tagged date : UTC 2024-02-01 00:31:44
Color range : Limited
Color primaries : BT.709
Transfer characteristics : BT.709
Matrix coefficients : BT.709
Menus : 3
mdhd_Duration : 7133794
Codec configuration box : avcC

Audio
ID : 2
Format : AAC LC
Format/Info : Advanced Audio Codec Low Complexity
Codec ID : mp4a-40-2
Duration : 1 h 58 min
Source duration : 1 h 58 min
Bit rate mode : Constant
Bit rate : 192 kb/s
Channel(s) : 2 channels
Channel layout : L R
Sampling rate : 48.0 kHz
Frame rate : 46.875 FPS (1024 SPF)
Compression mode : Lossy
Stream size : 162 MiB (5%)
Source stream size : 162 MiB (5%)
Title : Stereo
Language : Japanese
Default : Yes
Alternate group : 1
Encoded date : UTC 2024-02-01 00:31:44
Tagged date : UTC 2024-02-01 00:31:44
Menus : 3

Menu
ID : 3
Format : Timed Text
Codec ID : text
Duration : 1 h 58 min
Language : English
Encoded date : UTC 2024-02-01 00:31:44
Tagged date : UTC 2024-02-01 00:31:44
Bit rate mode : CBR
Menu For : 1,2
00:00:00.000 : 第 01 章
00:12:24.661 : 第 02 章
00:31:17.125 : 第 03 章
00:49:27.798 : 第 04 章
01:11:48.763 : 第 05 章
01:30:27.255 : 第 06 章
01:47:55.678 : 第 07 章
01:51:44.198 : 第 08 章
Bit rate mode : Constant


部分资源为软字幕,移动端推荐播放器:MxPlayer,nPlayer,infuse ,其他播放器请自行尝试。

部分资源为软字幕,电脑端推荐播放器:PotPlayer,完美解码,KMPLAYER,其他播放器请自行尝试。



1 个附件 售价 大小 下载 时间

After.Life.1998.BluRay.1080p.AAC2.0.x264-DreamHD[1LOU.ME].torrent 0 金币 11.67K 1085 次 2月前

#1楼
发帖时间:2024-02-02 21:49:33   |   回复数:1
jokingcheung
超凡入圣№
谢谢分享
2月前 #2楼
游客组