fg603603
一代宗师

[2017] [欧美] [喜剧] [BD-4K] 辣手保姆 The.Babysitter.2017.2160p.NF.WEB-DL.x265.10bit.SDR.DDP5.1-SMURF 7.44GB

-->

帖子完整标题:辣手保姆 The.Babysitter.2017.2160p.NF.WEB-DL.x265.10bit.SDR.DDP5.1-SMURF 7.44GB



◎标  题 辣手保姆
◎译  名 风骚小保姆(台) / 撒旦保姆
◎片  名 The Babysitter
◎年  代 2017
◎产  地 美国
◎类  别 喜剧 / 恐怖
◎语  言 英语
◎上映日期 2017-10-13(美国)
◎IMDb评分 6.4/10 (84461人评价)
◎IMDb链接 https://www.imdb.com/title/tt4225622/
◎豆瓣评分 6.7/10 (22821人评价)
◎豆瓣链接 https://movie.douban.com/subject/26704621/
◎片  长 85分钟
◎导  演 约瑟夫·麦克金提·尼彻 McG
◎编  剧 布莱恩·达菲尔德 Brian Duffield
◎演  员 犹大·刘易斯 Judah Lewis
      萨玛拉·维文 Samara Weaving
      罗比·阿美尔 Robbie Amell
      汉娜·梅·李 Hana Mae Lee
      贝拉·索恩 Bella Thorne
      艾米丽·阿琳·林德 Emily Alyn Lind
      安德鲁·巴切勒 Andrew Bachelor
      道格·海利 Doug Haley
      莱丝莉·比伯 Leslie Bibb
      肯·马里诺 Ken Marino
      塞缪尔·吉尔伯特 Samuel Gilbert
      扎卡里·亚力山大·赖斯 Zachary Alexander Rice
      多克·达厄姆 Doc Duhame
      让·克劳德·卢耶 Jean Claude Leuyer
      迈尔斯·J·哈维 Miles J. Harvey
      克里斯·维尔德 Chris Wylde
      卡尔·麦克道维尔 Carl McDowell
      乔纳森·贝莱 Jonathan Bray

◎标  签 喜剧 / 血腥 / 美国 / 惊悚 / 恐怖 / 黑色幽默 / 犯罪 / 2017

◎简  介
    科尔(尤达·刘易斯 Judah Lewis 饰)是一个个性十分懦弱的男孩,在学校里备受欺凌,回到家中又得不到父母的重视,只有平日里常常来照看他的保姆比(萨玛拉·维文 Samara Weaving 饰)是他最信任和亲近的人,两人之间有着深厚而又惺惺相惜的友谊。   科尔十分好奇比在自己睡着了之后会干些什么,于是在某夜偷偷溜下了床,躲在暗中窥视。让科尔感到震惊的是,比带了一群男男女女来到他家的客厅,玩起了真心话大冒险的游戏。随着时间的推移,这场轻佻火辣的游戏开始慢慢变味,突如其来的血腥屠杀让科尔明白,这并不是一场游戏,而比,也绝不是表面看上去的那么简单。

Video
ID : 1
Format : HEVC
Format/Info : High Efficiency Video Coding
Format profile : Main [email protected]@Main
Codec ID : V_MPEGH/ISO/HEVC
Duration : 1 h 25 min
Bit rate : 11.8 Mb/s
Width : 3 840 pixels
Height : 2 160 pixels
Display aspect ratio : 16:9
Frame rate mode : Constant
Frame rate : 23.976 (24000/1001/189150) FPS
Color space : YUV
Chroma subsampling : 4:2:0
Bit depth : 10 bits
Bits/(Pixel*Frame) : 0.059
Stream size : 7.05 GiB (95%)
Language : English
Default : Yes
Forced : No
Color range : Limited
Color primaries : BT.709
Transfer characteristics : BT.709
Matrix coefficients : BT.709

Audio
ID : 2
Format : E-AC-3
Format/Info : Enhanced AC-3
Commercial name : Dolby Digital Plus
Codec ID : A_EAC3
Duration : 1 h 25 min
Bit rate mode : Constant
Bit rate : 640 kb/s
Channel(s) : 6 channels
Channel layout : L R C LFE Ls Rs
Sampling rate : 48.0 kHz
Frame rate : 31.250 FPS (1536 SPF)
Compression mode : Lossy
Stream size : 392 MiB (5%)
Language : English
Service kind : Complete Main
Default : Yes
Forced : No

Text #1
ID : 3
Format : UTF-8
Codec ID : S_TEXT/UTF8
Codec ID/Info : UTF-8 Plain Text
Duration : 1 s 919 ms
Bit rate : 87 b/s
Frame rate : 0.521 FPS
Count of elements : 1
Stream size : 21.0 Bytes (0%)
Title : Forced
Language : English
Default : Yes
Forced : Yes

Text #2
ID : 4
Format : UTF-8
Codec ID : S_TEXT/UTF8
Codec ID/Info : UTF-8 Plain Text
Duration : 1 h 19 min
Bit rate : 60 b/s
Frame rate : 0.233 FPS
Count of elements : 1109
Stream size : 34.9 KiB (0%)
Language : English
Default : No
Forced : No

Text #3
ID : 5
Format : UTF-8
Codec ID : S_TEXT/UTF8
Codec ID/Info : UTF-8 Plain Text
Duration : 1 h 21 min
Bit rate : 70 b/s
Frame rate : 0.268 FPS
Count of elements : 1304
Stream size : 41.7 KiB (0%)
Title : SDH
Language : English
Default : No
Forced : No

Text #4
ID : 6
Format : UTF-8
Codec ID : S_TEXT/UTF8
Codec ID/Info : UTF-8 Plain Text
Duration : 1 h 24 min
Bit rate : 96 b/s
Frame rate : 0.221 FPS
Count of elements : 1121
Stream size : 59.8 KiB (0%)
Language : Arabic
Default : No
Forced : No

Text #5
ID : 7
Format : UTF-8
Codec ID : S_TEXT/UTF8
Codec ID/Info : UTF-8 Plain Text
Duration : 1 h 21 min
Bit rate : 53 b/s
Frame rate : 0.229 FPS
Count of elements : 1118
Stream size : 31.8 KiB (0%)
Language : Czech
Default : No
Forced : No

Text #6
ID : 8
Format : UTF-8
Codec ID : S_TEXT/UTF8
Codec ID/Info : UTF-8 Plain Text
Duration : 1 h 24 min
Bit rate : 53 b/s
Frame rate : 0.206 FPS
Count of elements : 1042
Stream size : 33.0 KiB (0%)
Language : Danish
Default : No
Forced : No

Text #7
ID : 9
Format : UTF-8
Codec ID : S_TEXT/UTF8
Codec ID/Info : UTF-8 Plain Text
Duration : 1 h 24 min
Bit rate : 56 b/s
Frame rate : 0.200 FPS
Count of elements : 1012
Stream size : 35.3 KiB (0%)
Language : German
Default : No
Forced : No

Text #8
ID : 10
Format : UTF-8
Codec ID : S_TEXT/UTF8
Codec ID/Info : UTF-8 Plain Text
Duration : 1 h 21 min
Bit rate : 95 b/s
Frame rate : 0.228 FPS
Count of elements : 1114
Stream size : 56.8 KiB (0%)
Language : Greek
Default : No
Forced : No

Text #9
ID : 11
Format : UTF-8
Codec ID : S_TEXT/UTF8
Codec ID/Info : UTF-8 Plain Text
Duration : 1 h 24 min
Bit rate : 51 b/s
Frame rate : 0.214 FPS
Count of elements : 1085
Stream size : 31.9 KiB (0%)
Title : Latin American
Language : Spanish
Default : No
Forced : No

Text #10
ID : 12
Format : UTF-8
Codec ID : S_TEXT/UTF8
Codec ID/Info : UTF-8 Plain Text
Duration : 1 h 24 min
Bit rate : 52 b/s
Frame rate : 0.220 FPS
Count of elements : 1110
Stream size : 32.4 KiB (0%)
Language : Spanish
Default : No
Forced : No

Text #11
ID : 13
Format : UTF-8
Codec ID : S_TEXT/UTF8
Codec ID/Info : UTF-8 Plain Text
Duration : 1 h 21 min
Bit rate : 48 b/s
Frame rate : 0.180 FPS
Count of elements : 878
Stream size : 28.8 KiB (0%)
Language : Finnish
Default : No
Forced : No

Text #12
ID : 14
Format : UTF-8
Codec ID : S_TEXT/UTF8
Codec ID/Info : UTF-8 Plain Text
Duration : 1 h 24 min
Bit rate : 53 b/s
Frame rate : 0.220 FPS
Count of elements : 1107
Stream size : 32.7 KiB (0%)
Language : fil
Default : No
Forced : No

Text #13
ID : 15
Format : UTF-8
Codec ID : S_TEXT/UTF8
Codec ID/Info : UTF-8 Plain Text
Duration : 1 h 24 min
Bit rate : 52 b/s
Frame rate : 0.211 FPS
Count of elements : 1069
Stream size : 32.2 KiB (0%)
Language : French
Default : No
Forced : No

Text #14
ID : 16
Format : UTF-8
Codec ID : S_TEXT/UTF8
Codec ID/Info : UTF-8 Plain Text
Duration : 1 h 24 min
Bit rate : 88 b/s
Frame rate : 0.222 FPS
Count of elements : 1127
Stream size : 54.7 KiB (0%)
Language : Hebrew
Default : No
Forced : No

Text #15
ID : 17
Format : UTF-8
Codec ID : S_TEXT/UTF8
Codec ID/Info : UTF-8 Plain Text
Duration : 1 h 24 min
Bit rate : 43 b/s
Frame rate : 0.213 FPS
Count of elements : 1080
Stream size : 26.7 KiB (0%)
Language : Croatian
Default : No
Forced : No

Text #16
ID : 18
Format : UTF-8
Codec ID : S_TEXT/UTF8
Codec ID/Info : UTF-8 Plain Text
Duration : 1 h 24 min
Bit rate : 52 b/s
Frame rate : 0.209 FPS
Count of elements : 1059
Stream size : 32.3 KiB (0%)
Language : Hungarian
Default : No
Forced : No

Text #17
ID : 19
Format : UTF-8
Codec ID : S_TEXT/UTF8
Codec ID/Info : UTF-8 Plain Text
Duration : 1 h 24 min
Bit rate : 52 b/s
Frame rate : 0.222 FPS
Count of elements : 1121
Stream size : 32.3 KiB (0%)
Language : Indonesian
Default : No
Forced : No

Text #18
ID : 20
Format : UTF-8
Codec ID : S_TEXT/UTF8
Codec ID/Info : UTF-8 Plain Text
Duration : 1 h 24 min
Bit rate : 57 b/s
Frame rate : 0.221 FPS
Count of elements : 1116
Stream size : 35.4 KiB (0%)
Language : Italian
Default : No
Forced : No

Text #19
ID : 21
Format : UTF-8
Codec ID : S_TEXT/UTF8
Codec ID/Info : UTF-8 Plain Text
Duration : 1 h 24 min
Bit rate : 42 b/s
Frame rate : 0.222 FPS
Count of elements : 1124
Stream size : 26.3 KiB (0%)
Language : Japanese
Default : No
Forced : No

Text #20
ID : 22
Format : UTF-8
Codec ID : S_TEXT/UTF8
Codec ID/Info : UTF-8 Plain Text
Duration : 1 h 24 min
Bit rate : 60 b/s
Frame rate : 0.225 FPS
Count of elements : 1142
Stream size : 37.3 KiB (0%)
Language : Korean
Default : No
Forced : No

Text #21
ID : 23
Format : UTF-8
Codec ID : S_TEXT/UTF8
Codec ID/Info : UTF-8 Plain Text
Duration : 1 h 24 min
Bit rate : 49 b/s
Frame rate : 0.217 FPS
Count of elements : 1097
Stream size : 30.7 KiB (0%)
Language : Malay
Default : No
Forced : No

Text #22
ID : 24
Format : UTF-8
Codec ID : S_TEXT/UTF8
Codec ID/Info : UTF-8 Plain Text
Duration : 1 h 24 min
Bit rate : 50 b/s
Frame rate : 0.209 FPS
Count of elements : 1059
Stream size : 31.2 KiB (0%)
Language : Norwegian Bokmal
Default : No
Forced : No

Text #23
ID : 25
Format : UTF-8
Codec ID : S_TEXT/UTF8
Codec ID/Info : UTF-8 Plain Text
Duration : 1 h 24 min
Bit rate : 45 b/s
Frame rate : 0.173 FPS
Count of elements : 875
Stream size : 28.3 KiB (0%)
Language : Dutch
Default : No
Forced : No

Text #24
ID : 26
Format : UTF-8
Codec ID : S_TEXT/UTF8
Codec ID/Info : UTF-8 Plain Text
Duration : 1 h 24 min
Bit rate : 46 b/s
Frame rate : 0.217 FPS
Count of elements : 1099
Stream size : 28.9 KiB (0%)
Language : Polish
Default : No
Forced : No

Text #25
ID : 27
Format : UTF-8
Codec ID : S_TEXT/UTF8
Codec ID/Info : UTF-8 Plain Text
Duration : 1 h 21 min
Bit rate : 59 b/s
Frame rate : 0.230 FPS
Count of elements : 1121
Stream size : 35.2 KiB (0%)
Title : Brazilian
Language : Portuguese
Default : No
Forced : No

Text #26
ID : 28
Format : UTF-8
Codec ID : S_TEXT/UTF8
Codec ID/Info : UTF-8 Plain Text
Duration : 1 h 24 min
Bit rate : 55 b/s
Frame rate : 0.217 FPS
Count of elements : 1100
Stream size : 34.3 KiB (0%)
Language : Portuguese
Default : No
Forced : No

Text #27
ID : 29
Format : UTF-8
Codec ID : S_TEXT/UTF8
Codec ID/Info : UTF-8 Plain Text
Duration : 1 h 24 min
Bit rate : 51 b/s
Frame rate : 0.220 FPS
Count of elements : 1115
Stream size : 31.8 KiB (0%)
Language : Romanian
Default : No
Forced : No

Text #28
ID : 30
Format : UTF-8
Codec ID : S_TEXT/UTF8
Codec ID/Info : UTF-8 Plain Text
Duration : 1 h 24 min
Bit rate : 84 b/s
Frame rate : 0.218 FPS
Count of elements : 1101
Stream size : 51.9 KiB (0%)
Language : Russian
Default : No
Forced : No

Text #29
ID : 31
Format : UTF-8
Codec ID : S_TEXT/UTF8
Codec ID/Info : UTF-8 Plain Text
Duration : 1 h 24 min
Bit rate : 50 b/s
Frame rate : 0.177 FPS
Count of elements : 899
Stream size : 31.2 KiB (0%)
Language : Swedish
Default : No
Forced : No

Text #30
ID : 32
Format : UTF-8
Codec ID : S_TEXT/UTF8
Codec ID/Info : UTF-8 Plain Text
Duration : 1 h 24 min
Bit rate : 114 b/s
Frame rate : 0.222 FPS
Count of elements : 1124
Stream size : 71.1 KiB (0%)
Language : Thai
Default : No
Forced : No

Text #31
ID : 33
Format : UTF-8
Codec ID : S_TEXT/UTF8
Codec ID/Info : UTF-8 Plain Text
Duration : 1 h 24 min
Bit rate : 53 b/s
Frame rate : 0.217 FPS
Count of elements : 1100
Stream size : 33.0 KiB (0%)
Language : Turkish
Default : No
Forced : No

Text #32
ID : 34
Format : UTF-8
Codec ID : S_TEXT/UTF8
Codec ID/Info : UTF-8 Plain Text
Duration : 1 h 24 min
Bit rate : 66 b/s
Frame rate : 0.214 FPS
Count of elements : 1080
Stream size : 41.1 KiB (0%)
Language : Vietnamese
Default : No
Forced : No

Text #33
ID : 35
Format : UTF-8
Codec ID : S_TEXT/UTF8
Codec ID/Info : UTF-8 Plain Text
Duration : 1 h 24 min
Bit rate : 44 b/s
Frame rate : 0.223 FPS
Count of elements : 1129
Stream size : 27.8 KiB (0%)
Title : Simplified
Language : Chinese
Default : No
Forced : No

Text #34
ID : 36
Format : UTF-8
Codec ID : S_TEXT/UTF8
Codec ID/Info : UTF-8 Plain Text
Duration : 1 h 24 min
Bit rate : 50 b/s
Frame rate : 0.223 FPS
Count of elements : 1128
Stream size : 30.9 KiB (0%)
Title : Traditional
Language : Chinese
Default : No
Forced : No

Menu
01:21:58.000 : en:End Credits





1 个附件 售价 大小 下载 时间

The.Babysitter.2017.2160p.NF.WEB-DL.x265.10bit.SDR.DDP5.1-SMURF.torrent 0 金币 19.24K 826 次 2月前

#1楼
发帖时间:2022-11-30 09:13:10   |   回复数:0
游客组