travismk
一代宗师

[2017] [其它] [剧情] [BD-4K] 请以你的名字呼唤我 Call.Me.by.Your.Name.2017.2160p.BluRay.x264.8bit.SDR.DTS-HD.MA.5.1-SWT

-->

帖子完整标题:请以你的名字呼唤我 Call.Me.by.Your.Name.2017.2160p.BluRay.x264.8bit.SDR.DTS-HD.MA.5.1-SWTYBLZ 65.14GB



◎标  题 请以你的名字呼唤我
◎译  名 以你的名字呼唤我(港 / 台) / 以你的名义呼唤我 / 唤吾汝名 / CMBYN / Chiamami col tuo nome
◎片  名 Call Me by Your Name
◎年  代 2017
◎产  地 意大利 / 法国 / 巴西 / 美国 / 荷兰 / 德国
◎类  别 剧情 / 爱情 / 同性
◎语  言 英语 / 意大利语 / 法语 / 德语 / 希伯来语
◎上映日期 2017-01-22(圣丹斯电影节) / 2017-11-24(美国)
◎IMDb评分 7.9/10 (242179人评价)
◎IMDb链接 https://www.imdb.com/title/tt5726616/
◎豆瓣评分 8.9/10 (599140人评价)
◎豆瓣链接 https://movie.douban.com/subject/26799731/
◎片  长 132分钟
◎导  演 卢卡·瓜达尼诺 Luca Guadagnino
◎编  剧 詹姆斯·伊沃里 James Ivory
      安德列‧艾席蒙 André Aciman
◎演  员 艾米·汉莫 Armie Hammer
      蒂莫西·柴勒梅德 Timothée Chalamet
      迈克尔·斯图巴 Michael Stuhlbarg
      阿蜜拉·卡萨 Amira Casar
      艾斯特·加莱尔 Esther Garrel
      维克图瓦尔·杜布瓦 Victoire Du Bois
      旺妲·卡布里奥罗 Vanda Capriolo
      安东尼奥·里莫尔迪 Antonio Rimoldi
      埃琳娜·布奇 Elena Bucci
      马可·斯格罗索 Marco Sgrosso
      安德列‧艾席蒙 André Aciman
      彼得·斯皮尔斯 Peter Spears

◎标  签 爱情 / 同性 / 青春 / 意大利 / 文艺 / 同志 / LGBT / 成长

◎简  介
    故事发生在八十年代的意大利里维埃拉,每年夏天,十七岁的少年艾力奥(提莫西·查拉梅 Timothée Chalamet 饰)都会跟家人一起来此地度假。今年,和他们共享假日时光的,还有来自美国的奥利弗(艾米·汉莫 Armie Hammer 饰),高大英俊热情开朗的奥利弗很快就获得了艾力奥一家人的喜爱。   随着时间的推移,艾力奥和奥利弗之间渐渐产生了致命的吸引力,但性别和年龄的桎梏让他们迟迟无法跨出那关键的一步,与此同时,单纯善良的少女马奇娅(艾斯特·加莱尔 Esther Garrel 饰)也向艾力奥奉献着自己的感情和身体。最终,汹涌的激情冲破了艾力奥和奥利弗之间的防线,两人开始了一段注定不会有结果的恋情。

Video
ID : 1
Format : AVC
Format/Info : Advanced Video Codec
Format profile : [email protected]
Format settings : CABAC / 5 Ref Frames
Format settings, CABAC : Yes
Format settings, Reference frames : 5 frames
Codec ID : V_MPEG4/ISO/AVC
Duration : 2 h 12 min
Bit rate : 67.6 Mb/s
Width : 3 840 pixels
Height : 2 076 pixels
Display aspect ratio : 1.85:1
Frame rate mode : Constant
Frame rate : 23.976 (24000/1001/189150) FPS
Color space : YUV
Chroma subsampling : 4:2:0
Bit depth : 8 bits
Scan type : Progressive
Bits/(Pixel*Frame) : 0.354
Stream size : 62.4 GiB (96%)
Writing library : x264 core 157 r2935 545de2f
Encoding settings : cabac=1 / ref=5 / deblock=1:-1:-1 / analyse=0x3:0x113 / me=umh / subme=10 / psy=1 / psy_rd=1.00:0.15 / mixed_ref=1 / me_range=48 / chroma_me=1 / trellis=2 / 8x8dct=1 / cqm=0 / deadzone=21,11 / fast_pskip=1 / chroma_qp_offset=-3 / threads=48 / lookahead_threads=4 / sliced_threads=0 / nr=0 / decimate=0 / interlaced=0 / bluray_compat=0 / constrained_intra=0 / bframes=3 / b_pyramid=2 / b_adapt=2 / b_bias=0 / direct=3 / weightb=1 / open_gop=0 / weightp=2 / keyint=250 / keyint_min=23 / scenecut=40 / intra_refresh=0 / rc_lookahead=50 / rc=crf / mbtree=1 / crf=18.0 / qcomp=0.60 / qpmin=0 / qpmax=69 / qpstep=4 / ip_ratio=1.40 / aq=1:1.00
Default : Yes
Forced : No

Audio #1
ID : 2
ID in the original source medium : 4352 (0x1100)
Format : DTS XLL
Format/Info : Digital Theater Systems
Commercial name : DTS-HD Master Audio
Codec ID : A_DTS
Duration : 2 h 12 min
Bit rate mode : Variable
Bit rate : 2 087 kb/s
Channel(s) : 6 channels
Channel layout : C L R Ls Rs LFE
Sampling rate : 48.0 kHz
Frame rate : 93.750 FPS (512 SPF)
Bit depth : 16 bits
Compression mode : Lossless
Stream size : 1.93 GiB (3%)
Title : DTS-HD MA 5.1
Language : English
Default : Yes
Forced : No
Original source medium : Blu-ray

Audio #2
ID : 3
Format : AC-3
Format/Info : Audio Coding 3
Commercial name : Dolby Digital
Codec ID : A_AC3
Duration : 2 h 12 min
Bit rate mode : Constant
Bit rate : 640 kb/s
Channel(s) : 6 channels
Channel layout : L R C LFE Ls Rs
Sampling rate : 48.0 kHz
Frame rate : 31.250 FPS (1536 SPF)
Compression mode : Lossy
Stream size : 605 MiB (1%)
Title : DD 5.1
Language : English
Service kind : Complete Main
Default : No
Forced : No

Text #1
ID : 4
Format : UTF-8
Codec ID : S_TEXT/UTF8
Codec ID/Info : UTF-8 Plain Text
Duration : 2 h 8 min
Bit rate : 29 b/s
Frame rate : 0.117 FPS
Count of elements : 899
Stream size : 28.0 KiB (0%)
Language : English
Default : Yes
Forced : No

Text #2
ID : 5
Format : UTF-8
Codec ID : S_TEXT/UTF8
Codec ID/Info : UTF-8 Plain Text
Duration : 2 h 10 min
Bit rate : 36 b/s
Frame rate : 0.147 FPS
Count of elements : 1148
Stream size : 34.4 KiB (0%)
Title : SDH
Language : English
Default : No
Forced : No

Text #3
ID : 6
ID in the original source medium : 4768 (0x12A0)
Format : PGS
Muxing mode : zlib
Codec ID : S_HDMV/PGS
Codec ID/Info : Picture based subtitle format used on BDs/HD-DVDs
Duration : 2 h 10 min
Bit rate : 21.1 kb/s
Frame rate : 0.305 FPS
Count of elements : 2385
Stream size : 19.7 MiB (0%)
Language : English
Default : No
Forced : No
Original source medium : Blu-ray

Text #4
ID : 7
ID in the original source medium : 4769 (0x12A1)
Format : PGS
Muxing mode : zlib
Codec ID : S_HDMV/PGS
Codec ID/Info : Picture based subtitle format used on BDs/HD-DVDs
Duration : 2 h 8 min
Bit rate : 14.6 kb/s
Frame rate : 0.210 FPS
Count of elements : 1614
Stream size : 13.3 MiB (0%)
Language : English
Default : No
Forced : No
Original source medium : Blu-ray

Text #5
ID : 8
ID in the original source medium : 4770 (0x12A2)
Format : PGS
Muxing mode : zlib
Codec ID : S_HDMV/PGS
Codec ID/Info : Picture based subtitle format used on BDs/HD-DVDs
Duration : 2 h 9 min
Bit rate : 13.9 kb/s
Frame rate : 0.233 FPS
Count of elements : 1806
Stream size : 12.8 MiB (0%)
Language : French
Default : No
Forced : No
Original source medium : Blu-ray

Text #6
ID : 9
ID in the original source medium : 4770 (0x12A2)
Format : PGS
Muxing mode : zlib
Codec ID : S_HDMV/PGS
Codec ID/Info : Picture based subtitle format used on BDs/HD-DVDs
Duration : 2 h 9 min
Bit rate : 2 342 b/s
Frame rate : 0.039 FPS
Count of elements : 300
Stream size : 2.17 MiB (0%)
Language : French
Default : No
Forced : No
Original source medium : Blu-ray

Text #7
ID : 10
ID in the original source medium : 4771 (0x12A3)
Format : PGS
Muxing mode : zlib
Codec ID : S_HDMV/PGS
Codec ID/Info : Picture based subtitle format used on BDs/HD-DVDs
Duration : 2 h 9 min
Bit rate : 16.8 kb/s
Frame rate : 0.274 FPS
Count of elements : 2130
Stream size : 15.6 MiB (0%)
Language : Spanish
Default : No
Forced : No
Original source medium : Blu-ray

Text #8
ID : 11
ID in the original source medium : 4771 (0x12A3)
Format : PGS
Muxing mode : zlib
Codec ID : S_HDMV/PGS
Codec ID/Info : Picture based subtitle format used on BDs/HD-DVDs
Duration : 2 h 9 min
Bit rate : 3 990 b/s
Frame rate : 0.070 FPS
Count of elements : 546
Stream size : 3.69 MiB (0%)
Language : Spanish
Default : No
Forced : No
Original source medium : Blu-ray

Menu
00:00:00.000 : en:Chapter 01
00:07:35.580 : en:Chapter 02
00:16:20.604 : en:Chapter 03
00:25:02.417 : en:Chapter 04
00:32:38.581 : en:Chapter 05
00:42:23.332 : en:Chapter 06
00:51:15.155 : en:Chapter 07
01:00:19.616 : en:Chapter 08
01:07:07.898 : en:Chapter 09
01:16:56.194 : en:Chapter 10
01:24:01.661 : en:Chapter 11
01:31:26.981 : en:Chapter 12
01:38:04.795 : en:Chapter 13
01:47:03.208 : en:Chapter 14
01:54:35.243 : en:Chapter 15
02:02:37.975 : en:Chapter 16





1 个附件 售价 大小 下载 时间

Call.Me.by.Your.Name.2017.2160p.BluRay.x264.8bit.SDR.DTS-HD.MA.5.1-SWTYBLZ.torrent 0 金币 82.17K 532 次 2月前

#1楼
发帖时间:2022-11-22 17:39:49   |   回复数:0
游客组