topgood
一代宗师

[2022] [日本] [其它] [WEB-1080P] 宝可梦:被称为神的阿尔宙斯 Pokemon.The.Arceus.Chronicles.2022.DUBBED.1080p.NF.WEBRip.DDP2.0.x

-->

帖子完整标题:宝可梦:被称为神的阿尔宙斯 Pokemon.The.Arceus.Chronicles.2022.DUBBED.1080p.NF.WEBRip.DDP2.0.x264-SMURF 1.57GB



◎标  题 宝可梦:被称为神的阿尔宙斯
◎译  名 宝可梦旅途特别篇
◎片  名 ポケットモンスター 神とよばれし アルセウス
◎年  代 2022
◎产  地 日本
◎类  别 动画 / 冒险
◎语  言 日语
◎上映日期 2022-01-21(日本)
◎IMDb链接 https://www.imdb.com/title/tt21970564/
◎豆瓣评分 7.5/10 (138人评价)
◎豆瓣链接 https://movie.douban.com/subject/35705807/
◎片  长 17分钟
◎导  演 富安大贵 Tomiyasu Daiki
      浅田裕二 Asada Yuuji
      富冈淳广 Atsuhiro Tomioka
◎编  剧 富冈淳广 Atsuhiro Tomioka
◎演  员 松本梨香 Rica Matsumoto
      大谷育江 Ikue Ootani
      丰口惠美 Megumi Toyoguchi
      山下大辉 Daiki Yamashita
      上田祐司 Yûji Ueda
      坂田将吾 Shogo Sakata

◎简  介
  这部以新奥地区为舞台的特别篇,除了小智和小豪之外,以小光为首的令人怀念的伙伴们出场,策划着神秘计划的银河队、被称为神的宝可梦·阿尔宙斯也即将登场。

Video
ID : 1
Format : AVC
Format/Info : Advanced Video Codec
Format profile : [email protected]
Format settings : CABAC / 3 Ref Frames
Format settings, CABAC : Yes
Format settings, Reference frames : 3 frames
Codec ID : V_MPEG4/ISO/AVC
Duration : 1 h 4 min
Bit rate mode : Variable
Bit rate : 3 345 kb/s
Nominal bit rate : 3 714 kb/s
Maximum bit rate : 5 745 kb/s
Width : 1 920 pixels
Height : 1 080 pixels
Display aspect ratio : 16:9
Frame rate mode : Constant
Frame rate : 23.976 (24000/1001/189150) FPS
Color space : YUV
Chroma subsampling : 4:2:0
Bit depth : 8 bits
Scan type : Progressive
Bits/(Pixel*Frame) : 0.067
Stream size : 1.51 GiB (96%)
Writing library : x264 core 148 r2727 7d026e8
Encoding settings : cabac=1 / ref=3 / deblock=1:0:0 / analyse=0x1:0x111 / me=umh / subme=10 / psy=1 / psy_rd=1.00:0.00 / mixed_ref=1 / me_range=24 / chroma_me=1 / trellis=2 / 8x8dct=0 / cqm=0 / deadzone=21,11 / fast_pskip=1 / chroma_qp_offset=-2 / threads=6 / lookahead_threads=1 / sliced_threads=0 / nr=0 / decimate=1 / interlaced=0 / bluray_compat=0 / stitchable=1 / constrained_intra=0 / bframes=2 / b_pyramid=0 / b_adapt=2 / b_bias=0 / direct=3 / weightb=1 / open_gop=0 / weightp=2 / keyint=250 / keyint_min=23 / scenecut=0 / intra_refresh=0 / rc_lookahead=48 / rc=2pass / mbtree=1 / bitrate=3714 / ratetol=1.0 / qcomp=0.50 / qpmin=6 / qpmax=51 / qpstep=4 / cplxblur=20.0 / qblur=0.5 / vbv_maxrate=5745 / vbv_bufsize=7660 / nal_hrd=vbr / filler=0 / ip_ratio=1.40 / aq=1:1.00
Language : English
Default : Yes
Forced : No

Audio
ID : 2
Format : E-AC-3
Format/Info : Enhanced AC-3
Commercial name : Dolby Digital Plus
Codec ID : A_EAC3
Duration : 1 h 4 min
Bit rate mode : Constant
Bit rate : 128 kb/s
Channel(s) : 2 channels
Channel layout : L R
Sampling rate : 48.0 kHz
Frame rate : 31.250 FPS (1536 SPF)
Compression mode : Lossy
Stream size : 59.3 MiB (4%)
Language : English
Service kind : Complete Main
Default : Yes
Forced : No

Text #1
ID : 3
Format : UTF-8
Codec ID : S_TEXT/UTF8
Codec ID/Info : UTF-8 Plain Text
Duration : 1 h 2 min
Bit rate : 50 b/s
Frame rate : 0.210 FPS
Count of elements : 786
Stream size : 23.1 KiB (0%)
Language : English
Default : No
Forced : No

Text #2
ID : 4
Format : UTF-8
Codec ID : S_TEXT/UTF8
Codec ID/Info : UTF-8 Plain Text
Duration : 1 h 2 min
Bit rate : 64 b/s
Frame rate : 0.302 FPS
Count of elements : 1131
Stream size : 29.5 KiB (0%)
Title : SDH
Language : English
Default : No
Forced : No

Text #3
ID : 5
Format : UTF-8
Codec ID : S_TEXT/UTF8
Codec ID/Info : UTF-8 Plain Text
Duration : 1 h 2 min
Bit rate : 75 b/s
Frame rate : 0.156 FPS
Count of elements : 586
Stream size : 34.6 KiB (0%)
Language : Arabic
Default : No
Forced : No

Text #4
ID : 6
Format : UTF-8
Codec ID : S_TEXT/UTF8
Codec ID/Info : UTF-8 Plain Text
Duration : 1 h 2 min
Bit rate : 41 b/s
Frame rate : 0.156 FPS
Count of elements : 586
Stream size : 19.1 KiB (0%)
Language : Czech
Default : No
Forced : No

Text #5
ID : 7
Format : UTF-8
Codec ID : S_TEXT/UTF8
Codec ID/Info : UTF-8 Plain Text
Duration : 1 h 2 min
Bit rate : 41 b/s
Frame rate : 0.148 FPS
Count of elements : 556
Stream size : 19.0 KiB (0%)
Language : Danish
Default : No
Forced : No

Text #6
ID : 8
Format : UTF-8
Codec ID : S_TEXT/UTF8
Codec ID/Info : UTF-8 Plain Text
Duration : 1 h 2 min
Bit rate : 40 b/s
Frame rate : 0.156 FPS
Count of elements : 586
Stream size : 18.6 KiB (0%)
Language : German
Default : No
Forced : No

Text #7
ID : 9
Format : UTF-8
Codec ID : S_TEXT/UTF8
Codec ID/Info : UTF-8 Plain Text
Duration : 1 h 3 min
Bit rate : 63 b/s
Frame rate : 0.145 FPS
Count of elements : 552
Stream size : 29.6 KiB (0%)
Language : Greek
Default : No
Forced : No

Text #8
ID : 10
Format : UTF-8
Codec ID : S_TEXT/UTF8
Codec ID/Info : UTF-8 Plain Text
Duration : 1 h 2 min
Bit rate : 42 b/s
Frame rate : 0.152 FPS
Count of elements : 570
Stream size : 19.7 KiB (0%)
Language : Spanish
Default : No
Forced : No

Text #9
ID : 11
Format : UTF-8
Codec ID : S_TEXT/UTF8
Codec ID/Info : UTF-8 Plain Text
Duration : 1 h 2 min
Bit rate : 42 b/s
Frame rate : 0.175 FPS
Count of elements : 658
Stream size : 19.6 KiB (0%)
Title : European
Language : Spanish
Default : No
Forced : No

Text #10
ID : 12
Format : UTF-8
Codec ID : S_TEXT/UTF8
Codec ID/Info : UTF-8 Plain Text
Duration : 1 h 2 min
Bit rate : 41 b/s
Frame rate : 0.144 FPS
Count of elements : 541
Stream size : 19.1 KiB (0%)
Language : Finnish
Default : No
Forced : No

Text #11
ID : 13
Format : UTF-8
Codec ID : S_TEXT/UTF8
Codec ID/Info : UTF-8 Plain Text
Duration : 1 h 2 min
Bit rate : 42 b/s
Frame rate : 0.164 FPS
Count of elements : 615
Stream size : 19.6 KiB (0%)
Language : French
Default : No
Forced : No

Text #12
ID : 14
Format : UTF-8
Codec ID : S_TEXT/UTF8
Codec ID/Info : UTF-8 Plain Text
Duration : 1 h 2 min
Bit rate : 73 b/s
Frame rate : 0.154 FPS
Count of elements : 578
Stream size : 33.7 KiB (0%)
Language : Hebrew
Default : No
Forced : No

Text #13
ID : 15
Format : UTF-8
Codec ID : S_TEXT/UTF8
Codec ID/Info : UTF-8 Plain Text
Duration : 1 h 3 min
Bit rate : 38 b/s
Frame rate : 0.149 FPS
Count of elements : 568
Stream size : 17.9 KiB (0%)
Language : Croatian
Default : No
Forced : No

Text #14
ID : 16
Format : UTF-8
Codec ID : S_TEXT/UTF8
Codec ID/Info : UTF-8 Plain Text
Duration : 1 h 3 min
Bit rate : 39 b/s
Frame rate : 0.148 FPS
Count of elements : 565
Stream size : 18.3 KiB (0%)
Language : Hungarian
Default : No
Forced : No

Text #15
ID : 17
Format : UTF-8
Codec ID : S_TEXT/UTF8
Codec ID/Info : UTF-8 Plain Text
Duration : 1 h 2 min
Bit rate : 40 b/s
Frame rate : 0.151 FPS
Count of elements : 568
Stream size : 18.5 KiB (0%)
Language : Italian
Default : No
Forced : No

Text #16
ID : 18
Format : UTF-8
Codec ID : S_TEXT/UTF8
Codec ID/Info : UTF-8 Plain Text
Duration : 1 h 2 min
Bit rate : 42 b/s
Frame rate : 0.130 FPS
Count of elements : 490
Stream size : 19.6 KiB (0%)
Language : Norwegian Bokmal
Default : No
Forced : No

Text #17
ID : 19
Format : UTF-8
Codec ID : S_TEXT/UTF8
Codec ID/Info : UTF-8 Plain Text
Duration : 1 h 2 min
Bit rate : 44 b/s
Frame rate : 0.144 FPS
Count of elements : 541
Stream size : 20.4 KiB (0%)
Language : Dutch
Default : No
Forced : No

Text #18
ID : 20
Format : UTF-8
Codec ID : S_TEXT/UTF8
Codec ID/Info : UTF-8 Plain Text
Duration : 1 h 2 min
Bit rate : 42 b/s
Frame rate : 0.144 FPS
Count of elements : 540
Stream size : 19.4 KiB (0%)
Language : Polish
Default : No
Forced : No

Text #19
ID : 21
Format : UTF-8
Codec ID : S_TEXT/UTF8
Codec ID/Info : UTF-8 Plain Text
Duration : 1 h 2 min
Bit rate : 42 b/s
Frame rate : 0.155 FPS
Count of elements : 583
Stream size : 19.7 KiB (0%)
Language : Portuguese
Default : No
Forced : No

Text #20
ID : 22
Format : UTF-8
Codec ID : S_TEXT/UTF8
Codec ID/Info : UTF-8 Plain Text
Duration : 1 h 2 min
Bit rate : 45 b/s
Frame rate : 0.155 FPS
Count of elements : 583
Stream size : 20.9 KiB (0%)
Title : Brazilian
Language : Portuguese
Default : No
Forced : No

Text #21
ID : 23
Format : UTF-8
Codec ID : S_TEXT/UTF8
Codec ID/Info : UTF-8 Plain Text
Duration : 1 h 3 min
Bit rate : 48 b/s
Frame rate : 0.155 FPS
Count of elements : 592
Stream size : 22.8 KiB (0%)
Language : Romanian
Default : No
Forced : No

Text #22
ID : 24
Format : UTF-8
Codec ID : S_TEXT/UTF8
Codec ID/Info : UTF-8 Plain Text
Duration : 1 h 2 min
Bit rate : 70 b/s
Frame rate : 0.156 FPS
Count of elements : 586
Stream size : 32.2 KiB (0%)
Language : Russian
Default : No
Forced : No

Text #23
ID : 25
Format : UTF-8
Codec ID : S_TEXT/UTF8
Codec ID/Info : UTF-8 Plain Text
Duration : 1 h 2 min
Bit rate : 43 b/s
Frame rate : 0.149 FPS
Count of elements : 560
Stream size : 19.8 KiB (0%)
Language : Swedish
Default : No
Forced : No

Text #24
ID : 26
Format : UTF-8
Codec ID : S_TEXT/UTF8
Codec ID/Info : UTF-8 Plain Text
Duration : 1 h 2 min
Bit rate : 45 b/s
Frame rate : 0.155 FPS
Count of elements : 583
Stream size : 20.9 KiB (0%)
Language : Turkish
Default : No
Forced : No

Text #25
ID : 27
Format : UTF-8
Codec ID : S_TEXT/UTF8
Codec ID/Info : UTF-8 Plain Text
Duration : 1 h 3 min
Bit rate : 64 b/s
Frame rate : 0.150 FPS
Count of elements : 571
Stream size : 30.3 KiB (0%)
Language : Ukrainian
Default : No
Forced : No





1 个附件 售价 大小 下载 时间

Pokemon.The.Arceus.Chronicles.2022.DUBBED.1080p.NF.WEBRip.DDP2.0.x264-SMURF.torrent 0 金币 16.39K 2219 次 4天前

#1楼
发帖时间:2022-09-23 17:56:08   |   回复数:0
游客组