travismk
一代宗师

[2022] [欧美] [BD-720P] 侏罗纪统治 Jurassic.Domination.2022.720p.BluRay.x264-FREEMAN 3.46GB

-->

帖子完整标题:侏罗纪统治 Jurassic.Domination.2022.720p.BluRay.x264-FREEMAN 3.46GB



◎标  题 侏罗纪统治
◎片  名 Jurassic Domination
◎年  代 2022
◎产  地 美国
◎语  言 英语
◎上映日期 2022-07-01(美国)
◎IMDb评分 4.3/10 (80人评价)
◎IMDb链接 https://www.imdb.com/title/tt21065316/
◎豆瓣链接 https://movie.douban.com/subject/35948772/

◎简  介
  In Jurassic Domination, “When two military-made, weaponized dinosaurs attack a small mountain town, it’s up to the sheriff to figure out a way to stop the creatures before the dinos escape and wreak havoc nationwide.” Eric Roberts (The Dark Knight), Jack Pearson (Pam & Tommy), and Jamie Bernadette (“NCIS: New Orleans”) lead the movie’s cast.

Video
ID : 1
Format : AVC
Format/Info : Advanced Video Codec
Format profile : [email protected]
Format settings : CABAC / 8 Ref Frames
Format settings, CABAC : Yes
Format settings, Reference frames : 8 frames
Codec ID : V_MPEG4/ISO/AVC
Duration : 1 h 24 min
Bit rate : 5 243 kb/s
Width : 1 280 pixels
Height : 536 pixels
Display aspect ratio : 2.40:1
Frame rate mode : Constant
Frame rate : 23.976 (24000/1001/189150) FPS
Color space : YUV
Chroma subsampling : 4:2:0
Bit depth : 8 bits
Scan type : Progressive
Bits/(Pixel*Frame) : 0.319
Stream size : 3.09 GiB (89%)
Writing library : x264 core 164 r3098 7628a56
Encoding settings : cabac=1 / ref=8 / deblock=1:-3:-3 / analyse=0x3:0x133 / me=umh / subme=9 / psy=1 / psy_rd=1.00:0.00 / mixed_ref=1 / me_range=16 / chroma_me=1 / trellis=2 / 8x8dct=1 / cqm=0 / deadzone=21,11 / fast_pskip=0 / chroma_qp_offset=-2 / threads=17 / lookahead_threads=1 / sliced_threads=0 / nr=0 / decimate=1 / interlaced=0 / bluray_compat=0 / constrained_intra=0 / bframes=3 / b_pyramid=2 / b_adapt=2 / b_bias=0 / direct=3 / weightb=1 / open_gop=0 / weightp=2 / keyint=250 / keyint_min=23 / scenecut=40 / intra_refresh=0 / rc_lookahead=60 / rc=crf / mbtree=1 / crf=17.0 / qcomp=0.60 / qpmin=0 / qpmax=69 / qpstep=4 / ip_ratio=1.40 / aq=3:1.00
Default : Yes
Forced : No
Color range : Limited
Matrix coefficients : BT.709

Audio
ID : 2
Format : AC-3
Format/Info : Audio Coding 3
Commercial name : Dolby Digital
Codec ID : A_AC3
Duration : 1 h 24 min
Bit rate mode : Constant
Bit rate : 640 kb/s
Channel(s) : 6 channels
Channel layout : L R C LFE Ls Rs
Sampling rate : 48.0 kHz
Frame rate : 31.250 FPS (1536 SPF)
Compression mode : Lossy
Stream size : 385 MiB (11%)
Language : English
Service kind : Complete Main
Default : Yes
Forced : No

Menu
00:00:00.000 : en:00:00:00.000
00:09:22.228 : en:00:09:22.228
00:21:12.980 : en:00:21:12.980
00:31:56.790 : en:00:31:56.790
00:41:36.327 : en:00:41:36.327
00:52:40.866 : en:00:52:40.866
01:02:14.981 : en:01:02:14.981
01:07:46.771 : en:01:07:46.771





1 个附件 售价 大小 下载 时间

Jurassic.Domination.2022.720p.BluRay.x264-FREEMAN.torrent 0 金币 18.02K 987 次 4天前

#1楼
发帖时间:2022-09-23 08:54:09   |   回复数:0
游客组