travismk
一代宗师

[2022] [欧美] [其它] [WEB-1080P] 绝不退缩 Gabby.Giffords.Wont.Back.Down.2022.1080p.WEBRip.DDP5.1.x264-SMURF 5.83GB

-->

帖子完整标题:绝不退缩 Gabby.Giffords.Wont.Back.Down.2022.1080p.WEBRip.DDP5.1.x264-SMURF 5.83GB



◎标  题 绝不退缩
◎片  名 Gabby Giffords Won’t Back Down
◎年  代 2022
◎产  地 美国
◎类  别 纪录片
◎语  言 英语
◎上映日期 2022-03-12(西南偏南电影节)
◎IMDb评分 7.1/10 (113人评价)
◎IMDb链接 https://www.imdb.com/title/tt17490116/
◎豆瓣链接 https://movie.douban.com/subject/35760507/
◎片  长 95分钟
◎导  演 贝齐·韦斯特 Betsy West

◎简  介
  Gabby Giffords Won’t Back Down tells the extraordinary story of former Arizona Congresswoman Gabby Giffords: her relentless fight to recover following an assassination attempt in 2011, and her new life as one of the most effective activists in the battle against gun violence. Featuring extensive verite filming of Gabby and her husband, astronaut-turned-Senator Mark Kelly; inter...

Video
ID : 1
Format : AVC
Format/Info : Advanced Video Codec
Format profile : [email protected]
Format settings : CABAC / 4 Ref Frames
Format settings, CABAC : Yes
Format settings, Reference frames : 4 frames
Codec ID : V_MPEG4/ISO/AVC
Duration : 1 h 38 min
Bit rate : 8 000 kb/s
Width : 1 920 pixels
Height : 1 080 pixels
Display aspect ratio : 16:9
Frame rate mode : Constant
Frame rate : 23.976 (24000/1001/189150) FPS
Color space : YUV
Chroma subsampling : 4:2:0
Bit depth : 8 bits
Scan type : Progressive
Bits/(Pixel*Frame) : 0.161
Stream size : 5.39 GiB (92%)
Writing library : x264 core 164 r3094 bfc87b7
Encoding settings : cabac=1 / ref=4 / deblock=1:-1:-1 / analyse=0x3:0x133 / me=umh / subme=9 / psy=1 / psy_rd=1.00:0.15 / mixed_ref=1 / me_range=16 / chroma_me=1 / trellis=2 / 8x8dct=1 / cqm=0 / deadzone=21,11 / fast_pskip=1 / chroma_qp_offset=-3 / threads=12 / lookahead_threads=1 / sliced_threads=0 / nr=0 / decimate=1 / interlaced=0 / bluray_compat=0 / stitchable=1 / constrained_intra=0 / bframes=3 / b_pyramid=2 / b_adapt=2 / b_bias=0 / direct=3 / weightb=1 / open_gop=0 / weightp=2 / keyint=48 / keyint_min=4 / scenecut=0 / intra_refresh=0 / rc_lookahead=48 / rc=abr / mbtree=1 / bitrate=8000 / ratetol=1.0 / qcomp=0.60 / qpmin=0 / qpmax=69 / qpstep=4 / vbv_maxrate=8800 / vbv_bufsize=16000 / nal_hrd=none / filler=0 / ip_ratio=1.40 / aq=1:1.00
Language : English
Default : Yes
Forced : No
Color range : Limited
Color primaries : BT.709
Transfer characteristics : BT.709
Matrix coefficients : BT.709

Audio
ID : 2
Format : E-AC-3
Format/Info : Enhanced AC-3
Commercial name : Dolby Digital Plus
Codec ID : A_EAC3
Duration : 1 h 38 min
Bit rate mode : Constant
Bit rate : 640 kb/s
Channel(s) : 6 channels
Channel layout : L R C LFE Ls Rs
Sampling rate : 48.0 kHz
Frame rate : 31.250 FPS (1536 SPF)
Compression mode : Lossy
Stream size : 451 MiB (8%)
Language : English
Service kind : Complete Main
Default : Yes
Forced : No

Text #1
ID : 3
Format : UTF-8
Codec ID : S_TEXT/UTF8
Codec ID/Info : UTF-8 Plain Text
Duration : 8 s 467 ms
Bit rate : 123 b/s
Frame rate : 0.236 FPS
Count of elements : 2
Stream size : 131 Bytes (0%)
Title : Forced
Language : English
Default : No
Forced : Yes

Text #2
ID : 4
Format : UTF-8
Codec ID : S_TEXT/UTF8
Codec ID/Info : UTF-8 Plain Text
Duration : 1 h 36 min
Bit rate : 88 b/s
Frame rate : 0.350 FPS
Count of elements : 2027
Stream size : 62.6 KiB (0%)
Language : English
Default : No
Forced : No

Text #3
ID : 5
Format : UTF-8
Codec ID : S_TEXT/UTF8
Codec ID/Info : UTF-8 Plain Text
Duration : 1 h 36 min
Bit rate : 97 b/s
Frame rate : 0.365 FPS
Count of elements : 2112
Stream size : 69.0 KiB (0%)
Title : SDH
Language : English
Default : No
Forced : No

Text #4
ID : 6
Format : UTF-8
Codec ID : S_TEXT/UTF8
Codec ID/Info : UTF-8 Plain Text
Duration : 1 h 37 min
Bit rate : 86 b/s
Frame rate : 0.298 FPS
Count of elements : 1742
Stream size : 62.0 KiB (0%)
Title : Latin American
Language : Spanish
Default : No
Forced : No

Text #5
ID : 7
Format : UTF-8
Codec ID : S_TEXT/UTF8
Codec ID/Info : UTF-8 Plain Text
Duration : 1 h 36 min
Bit rate : 81 b/s
Frame rate : 0.258 FPS
Count of elements : 1492
Stream size : 57.8 KiB (0%)
Title : Canadian
Language : French
Default : No
Forced : No

Menu
00:00:00.083 : en:Chapter 1
00:04:48.037 : en:Chapter 2
00:17:42.437 : en:Chapter 3
00:30:46.804 : en:Chapter 4
00:44:52.900 : en:Chapter 5
00:58:07.278 : en:Chapter 6
01:12:54.832 : en:Chapter 7
01:25:21.621 : en:Chapter 8
01:35:19.886 : en:Chapter 9





1 个附件 售价 大小 下载 时间

Gabby.Giffords.Wont.Back.Down.2022.1080p.WEBRip.DDP5.1.x264-SMURF.torrent 0 金币 15.23K 238 次 11天前

#1楼
发帖时间:2022-08-06 17:02:26   |   回复数:0
游客组