travismk
一代宗师

[2022] [欧美] [剧情] [WEB-1080P] 复生 Resurrection.2022.1080p.AMZN.WEBRip.DDP5.1.x264-SMURF 7.20GB

-->

帖子完整标题:复生 Resurrection.2022.1080p.AMZN.WEBRip.DDP5.1.x264-SMURF 7.20GB



◎标  题 复生
◎译  名 复兴
◎片  名 Resurrection
◎年  代 2022
◎产  地 美国
◎类  别 剧情 / 悬疑 / 惊悚 / 恐怖 / 犯罪
◎语  言 英语
◎上映日期 2022-01-22(圣丹斯电影节) / 2022-08-05(美国)
◎IMDb评分 6.7/10 (468人评价)
◎IMDb链接 https://www.imdb.com/title/tt11540726/
◎豆瓣链接 https://movie.douban.com/subject/35694779/
◎片  长 103分钟
◎导  演 安德鲁·山姆斯 Andrew Semans
◎编  剧 安德鲁·山姆斯 Andrew Semans
◎演  员 丽贝卡·豪尔 Rebecca Hall
      蒂姆·罗斯 Tim Roth
      格蕾丝·考夫曼 Grace Kaufman
      迈克尔·埃斯佩尔 Michael Esper
      Josh Drennen Josh Drennen
      罗丝玛丽·霍华德 Rosemary Howard
      帕特里克·克莱因 Patrick Klein

◎简  介
  讲述玛格丽特(豪尔)过着成功而有序的生活,完美地平衡了她繁忙的事业和作为单身母亲对极度独立的女儿艾比的照顾。直到大卫(罗斯)出现,她的过去开始困扰她,精心计划的生活发生了更黑暗的转变,玛格丽特不得不直面她逃避了20年的怪物,来终结他们之间的恩怨。

Video
ID : 1
Format : AVC
Format/Info : Advanced Video Codec
Format profile : [email protected]
Format settings : CABAC / 4 Ref Frames
Format settings, CABAC : Yes
Format settings, Reference frames : 4 frames
Codec ID : V_MPEG4/ISO/AVC
Duration : 1 h 44 min
Bit rate mode : Constant
Bit rate : 9 258 kb/s
Nominal bit rate : 10 000 kb/s
Width : 1 792 pixels
Height : 1 080 pixels
Display aspect ratio : 5:3
Frame rate mode : Constant
Frame rate : 23.976 (24000/1001/189150) FPS
Color space : YUV
Chroma subsampling : 4:2:0
Bit depth : 8 bits
Scan type : Progressive
Bits/(Pixel*Frame) : 0.200
Stream size : 6.73 GiB (94%)
Default : Yes
Forced : No
Color range : Limited
Color primaries : BT.709
Transfer characteristics : BT.709
Matrix coefficients : BT.709

Audio
ID : 2
Format : E-AC-3
Format/Info : Enhanced AC-3
Commercial name : Dolby Digital Plus
Codec ID : A_EAC3
Duration : 1 h 44 min
Bit rate mode : Constant
Bit rate : 640 kb/s
Channel(s) : 6 channels
Channel layout : L R C LFE Ls Rs
Sampling rate : 48.0 kHz
Frame rate : 31.250 FPS (1536 SPF)
Compression mode : Lossy
Stream size : 477 MiB (6%)
Language : English
Service kind : Complete Main
Default : Yes
Forced : No

Text #1
ID : 3
Format : UTF-8
Codec ID : S_TEXT/UTF8
Codec ID/Info : UTF-8 Plain Text
Duration : 1 h 41 min
Bit rate : 44 b/s
Frame rate : 0.221 FPS
Count of elements : 1350
Stream size : 33.4 KiB (0%)
Language : English
Default : No
Forced : No

Text #2
ID : 4
Format : UTF-8
Codec ID : S_TEXT/UTF8
Codec ID/Info : UTF-8 Plain Text
Duration : 1 h 41 min
Bit rate : 48 b/s
Frame rate : 0.239 FPS
Count of elements : 1460
Stream size : 36.4 KiB (0%)
Title : SDH
Language : English
Default : No
Forced : No

Menu
01:44:00.000 : en:Credits





1 个附件 售价 大小 下载 时间

Resurrection.2022.1080p.AMZN.WEBRip.DDP5.1.x264-SMURF.torrent 0 金币 18.63K 399 次 11天前

#1楼
发帖时间:2022-08-06 17:02:05   |   回复数:1
niupeiyou
小有名气
感谢楼主分享 !!!
10天前 #2楼
游客组