travismk
一代宗师

[2022] [欧美] [惊悚] [WEB-1080P] 弗雷加德 Rogue.Agent.2022.1080p.NF.WEBRip.DDP5.1.x264-NTb 2.18GB

-->

帖子完整标题:弗雷加德 Rogue.Agent.2022.1080p.NF.WEBRip.DDP5.1.x264-NTb 2.18GB



◎标  题 弗雷加德
◎译  名 Freegard / Chasing Agent Freegard
◎片  名 Rogue Agent
◎年  代 2022
◎产  地 英国
◎类  别 惊悚
◎语  言 英语
◎上映日期 2022-07-27(英国网络) / 2022-08-12(美国)
◎IMDb评分 6.5/10 (714人评价)
◎IMDb链接 https://www.imdb.com/title/tt9731386/
◎豆瓣链接 https://movie.douban.com/subject/35472740/
◎导  演 德克兰·朗 Declan Lawn
      亚当·帕特森 Adam Patterson
◎编  剧 迈克尔·布朗纳 Michael Bronner
◎演  员 詹姆斯·诺顿 James Norton
      杰玛·阿特登 Gemma Arterton
      萨拉·古德伯格 Sarah Goldberg
      沙扎德·拉蒂夫 Shazad Latif
      弗雷娅·梅弗 Freya Mavor
      吉米·耶肯博拉 Jimmy Akingbola
      朱利安·巴拉特 Julian Barratt
      玛瑞萨·阿贝拉 Marisa Abela
      埃德温娜·芬德利·迪克森 Edwina Findley Dickerson
      ‎迈克尔·芬顿·史蒂文斯‎ Michael Fenton Stevens
      菲利普·瑞特 Philip Wright
      罗布·马龙 Rob Malone
      卢克·皮埃尔 Luke Pierre

◎简  介
  该片故事改编自布朗纳撰写的文章《追踪弗雷 加德特工》(Chasing Agent Freegard),讲述一桩真实发生的故事,职业骗子罗伯特·弗雷加德(诺顿饰)是个操纵人心的高手,他让无数受害者相信他是军情五处的卧底,以此敲诈和绑架他们。阿特登所饰的角色最初为他的魅力所倾倒,后来成为了弗雷加德垮台的关键人物,她的行动导致他被定罪和逮捕。

Video
ID : 1
Format : AVC
Format/Info : Advanced Video Codec
Format profile : [email protected]
Format settings : CABAC / 4 Ref Frames
Format settings, CABAC : Yes
Format settings, Reference frames : 4 frames
Codec ID : V_MPEG4/ISO/AVC
Duration : 1 h 55 min
Bit rate mode : Variable
Bit rate : 2 053 kb/s
Maximum bit rate : 20.0 Mb/s
Width : 1 920 pixels
Height : 1 080 pixels
Display aspect ratio : 16:9
Frame rate mode : Constant
Frame rate : 24.000 FPS
Color space : YUV
Chroma subsampling : 4:2:0
Bit depth : 8 bits
Scan type : Progressive
Bits/(Pixel*Frame) : 0.041
Stream size : 1.66 GiB (76%)
Writing library : x264 core 148 r2727 7d026e8
Encoding settings : cabac=1 / ref=4 / deblock=1:0:0 / analyse=0x3:0x111 / me=umh / subme=10 / psy=1 / psy_rd=1.00:0.00 / mixed_ref=1 / me_range=120 / chroma_me=1 / trellis=2 / 8x8dct=1 / cqm=0 / deadzone=21,11 / fast_pskip=1 / chroma_qp_offset=-2 / threads=8 / lookahead_threads=2 / sliced_threads=0 / nr=0 / decimate=1 / interlaced=0 / bluray_compat=0 / stitchable=1 / constrained_intra=0 / bframes=16 / b_pyramid=2 / b_adapt=2 / b_bias=0 / direct=3 / weightb=1 / open_gop=0 / weightp=2 / keyint=240 / keyint_min=121 / scenecut=0 / intra_refresh=0 / rc_lookahead=240 / rc=crf / mbtree=1 / crf=16.0 / qcomp=0.50 / qpmin=6 / qpmax=51 / qpstep=4 / vbv_maxrate=20000 / vbv_bufsize=25000 / crf_max=0.0 / nal_hrd=vbr / filler=0 / ip_ratio=1.40 / aq=1:0.80
Default : Yes
Forced : No

Audio
ID : 2
Format : E-AC-3
Format/Info : Enhanced AC-3
Commercial name : Dolby Digital Plus
Codec ID : A_EAC3
Duration : 1 h 55 min
Bit rate mode : Constant
Bit rate : 640 kb/s
Channel(s) : 6 channels
Channel layout : L R C LFE Ls Rs
Sampling rate : 48.0 kHz
Frame rate : 31.250 FPS (1536 SPF)
Compression mode : Lossy
Stream size : 531 MiB (24%)
Language : English
Service kind : Complete Main
Default : Yes
Forced : No

Text #1
ID : 3
Format : UTF-8
Codec ID : S_TEXT/UTF8
Codec ID/Info : UTF-8 Plain Text
Duration : 1 h 52 min
Bit rate : 55 b/s
Frame rate : 0.218 FPS
Count of elements : 1474
Stream size : 46.0 KiB (0%)
Language : English
Default : No
Forced : No

Text #2
ID : 4
Format : UTF-8
Codec ID : S_TEXT/UTF8
Codec ID/Info : UTF-8 Plain Text
Duration : 1 h 54 min
Bit rate : 61 b/s
Frame rate : 0.252 FPS
Count of elements : 1733
Stream size : 51.6 KiB (0%)
Title : SDH
Language : English
Default : No
Forced : No

Menu
00:00:00.000 : en:Chapter 1
01:52:48.000 : en:Credits





1 个附件 售价 大小 下载 时间

Rogue.Agent.2022.1080p.NF.WEBRip.DDP5.1.x264-NTb.torrent 0 金币 22.45K 707 次 11天前

#1楼
发帖时间:2022-08-06 17:01:38   |   回复数:0
游客组